Ивановский Торрент трекер
Яндекс.Погода
DL-List and Torrent activity
None
 
     
 
 

[Quote]
HUNTER

Need for Speed: Жажда скорости / Need for Speed

-
-Страна: США, Филиппины, Ирландия, Великобритания
Студия: DreamWorks SKG, Electronic Arts
Жанр: боевик, триллер, драма, криминал
Год выпуска: 2014
Продолжительность: 02:10:43--Перевод: Профессиональный (дублированный) Blu-ray
Cубтитры: русские (forced, full), английские
Оригинальная аудиодорожка: английский--Режиссер: Скотт Во / Scott Waugh
В ролях: Аарон Пол, Доминик Купер, Имоджен Путс, Дакота Джонсон, Майкл Китон, Рамон Родригес, Ник Чинланд, Кид Кади, Рэми Малек--Описание: История Тоби Маршалла, гениального автомеханика, чьей единственной отдушиной является участие в подпольных гонках. Чтобы сохранить семейную мастерскую, Тоби вынужден взять в партнеры богатого и заносчивого бывшего гонщика NASCAR Дино Брюстера. Когда дела Тоби наконец-то начинают идти в гору, Дино подставляет партнера, и Тоби обвиняют в преступлении, которого он не совершал. Спустя два года Тоби выходит из тюрьмы с мыслью о мести. Чтобы достичь своей цели, ему придется совершить невозможное и доказать, что даже в мире броских суперкаров самый невзрачный гонщик может финишировать первым.--imdb | kinopoisk | Сэмпл--Тип релиза: BDRip 720p [Need for Speed 2014 720p BluRay DD-EX 5.1 x264-CRiSC]
Контейнер: MKV
Видео: MPEG-4 AVC / 5350 Kbps / 1280x536 / 23,976 fps / 2,40:1 / High Profile 4.1
Аудио 1: Russian AC3 / 5.1 / 48 kHz / 640 kbps / 16 bits |Dub, Blu-ray|
Аудио 2: English AC3-EX / 5.1 / 48 kHz / 640 kbps / 16 bits |original|
Аудио 3: English AC3 / 2.0 / 48 kHz / 320 kbps / 16 bits |Descriptive|
Аудио 4: English AC3 / 2.0 / 48 kHz / 192 kbps / 16 bits |Commentary with Director Scott Waugh and Aaron Paul|
Формат субтитров: softsub [SRT]

MediaInfo

Общее
Уникальный идентификатор                 : 184435467989319290769379298821543637055 (0x8AC0FAA3BA05755B8926054D6D79303F)
Полное имя                               : G:\HD\Need for Speed.2014.BDRip.(720p).mkv
Формат                                   : Matroska
Версия формата                           : Version 4 / Version 2
Размер файла                             : 6,66 Гбайт
Продолжительность                        : 2 ч. 10 м.
Общий поток                              : 7287 Кбит/сек
Дата кодирования                         : UTC 2014-07-17 04:20:47
Программа кодирования                    : mkvmerge v7.0.0 ('Where We Going') 64bit built on Jun  9 2014 15:16:27
Библиотека кодирования                   : libebml v1.3.0 + libmatroska v1.4.1
Attachment                               : Yes
Видео
Идентификатор                            : 1
Формат                                   : AVC
Формат/Информация                        : Advanced Video Codec
Профиль формата                          : High@L4.1
Параметр CABAC формата                   : Да
Параметр ReFrames формата                : 12 кадров
Идентификатор кодека                     : V_MPEG4/ISO/AVC
Продолжительность                        : 2 ч. 10 м.
Битрейт                                  : 5350 Кбит/сек
Ширина                                   : 1280 пикселей
Высота                                   : 536 пикселей
Соотношение сторон                       : 2,40:1
Режим частоты кадров                     : Постоянный
Частота кадров                           : 23,976 кадра/сек
Цветовое пространство                    : YUV
Субдискретизация насыщенности            : 4:2:0
Битовая глубина                          : 8 бит
Тип развёртки                            : Прогрессивная
Бит/(Пиксели*Кадры)                      : 0.325
Размер потока                            : 4,89 Гбайт (73%)
Заголовок                                : Need for Speed 2014 720p BluRay DD-EX 5.1 x264-CRiSC
Библиотека кодирования                   : x264 core 142 r2431kMod ac76440
Настройки программы                      : cabac=1 / ref=12 / deblock=1:-3:-3 / analyse=0x3:0x133 / me=umh / subme=11 / psy=1 / fade_compensate=0.00 / psy_rd=1.05:0.00 / mixed_ref=1 / me_range=64 / chroma_me=1 / trellis=2 / 8x8dct=1 / cqm=0 / deadzone=21,11 / fast_pskip=0 / chroma_qp_offset=-2 / threads=12 / lookahead_threads=2 / sliced_threads=0 / nr=0 / decimate=0 / interlaced=0 / bluray_compat=0 / constrained_intra=0 / fgo=0 / bframes=7 / b_pyramid=2 / b_adapt=2 / b_bias=0 / direct=3 / weightb=1 / open_gop=0 / weightp=2 / keyint=250 / keyint_min=23 / scenecut=40 / intra_refresh=0 / rc_lookahead=40 / rc=crf / mbtree=0 / crf=16.4000 / qcomp=0.75 / qpmin=0 / qpmax=69 / qpstep=4 / vbv_maxrate=50000 / vbv_bufsize=62500 / crf_max=0.0 / nal_hrd=none / filler=0 / ip_ratio=1.30 / pb_ratio=1.20 / aq=3:0.65
Язык                                     : English
Default                                  : Да
Forced                                   : Нет
Основные цвета                           : BT.709
Характеристики трансфера                 : BT.709
Коэффициенты матрицы                     : BT.709
Аудио #1
Идентификатор                            : 2
Формат                                   : AC-3
Формат/Информация                        : Audio Coding 3
Расширение режима                        : CM (complete main)
Параметр Endianness формата              : Big
Идентификатор кодека                     : A_AC3
Продолжительность                        : 2 ч. 10 м.
Вид битрейта                             : Постоянный
Битрейт                                  : 640 Кбит/сек
Каналы                                   : 6 каналов
Расположение каналов                     : Front: L C R, Side: L R, LFE
Частота                                  : 48,0 КГц
Битовая глубина                          : 16 бит
Метод сжатия                             : С потерями
Размер потока                            : 599 Мбайт (9%)
Заголовок                                : Dub, Blu-ray
Язык                                     : Russian
Default                                  : Да
Forced                                   : Нет
Аудио #2
Идентификатор                            : 3
Формат                                   : AC-3
Формат/Информация                        : Audio Coding 3
Расширение режима                        : CM (complete main)
Параметр Endianness формата              : Big
Идентификатор кодека                     : A_AC3
Продолжительность                        : 2 ч. 10 м.
Вид битрейта                             : Постоянный
Битрейт                                  : 640 Кбит/сек
Каналы                                   : 6 каналов
Расположение каналов                     : Front: L C R, Side: L R, LFE
Частота                                  : 48,0 КГц
Битовая глубина                          : 16 бит
Метод сжатия                             : С потерями
Размер потока                            : 599 Мбайт (9%)
Заголовок                                : AC3 5.1 EX @ 640 kbps
Язык                                     : English
Default                                  : Нет
Forced                                   : Нет
Аудио #3
Идентификатор                            : 4
Формат                                   : AC-3
Формат/Информация                        : Audio Coding 3
Профиль формата                          : Dolby Digital
Расширение режима                        : CM (complete main)
Параметр Endianness формата              : Big
Идентификатор кодека                     : A_AC3
Продолжительность                        : 2 ч. 10 м.
Вид битрейта                             : Постоянный
Битрейт                                  : 320 Кбит/сек
Каналы                                   : 2 канала
Расположение каналов                     : Front: L R
Частота                                  : 48,0 КГц
Битовая глубина                          : 16 бит
Метод сжатия                             : С потерями
Размер потока                            : 300 Мбайт (4%)
Заголовок                                : Descriptive
Язык                                     : English
Default                                  : Нет
Forced                                   : Нет
Аудио #4
Идентификатор                            : 5
Формат                                   : AC-3
Формат/Информация                        : Audio Coding 3
Расширение режима                        : CM (complete main)
Параметр Endianness формата              : Big
Идентификатор кодека                     : A_AC3
Продолжительность                        : 2 ч. 10 м.
Вид битрейта                             : Постоянный
Битрейт                                  : 192 Кбит/сек
Каналы                                   : 2 канала
Расположение каналов                     : Front: L R
Частота                                  : 48,0 КГц
Битовая глубина                          : 16 бит
Метод сжатия                             : С потерями
Размер потока                            : 180 Мбайт (3%)
Заголовок                                : Commentary with Director Scott Waugh and Aaron Paul
Язык                                     : English
Default                                  : Нет
Forced                                   : Нет
Текст #1
Идентификатор                            : 6
Формат                                   : UTF-8
Идентификатор кодека                     : S_TEXT/UTF8
Идентификатор кодека/Информация          : UTF-8 Plain Text
Заголовок                                : forced
Язык                                     : Russian
Default                                  : Да
Forced                                   : Нет
Текст #2
Идентификатор                            : 7
Формат                                   : UTF-8
Идентификатор кодека                     : S_TEXT/UTF8
Идентификатор кодека/Информация          : UTF-8 Plain Text
Заголовок                                : full
Язык                                     : Russian
Default                                  : Нет
Forced                                   : Нет
Текст #3
Идентификатор                            : 8
Формат                                   : UTF-8
Идентификатор кодека                     : S_TEXT/UTF8
Идентификатор кодека/Информация          : UTF-8 Plain Text
Язык                                     : English
Default                                  : Нет
Forced                                   : Нет
Меню
00:00:00.000                             : :Monarch
00:03:54.734                             : :Race Prep
00:07:49.761                             : :Race
00:14:28.034                             : :Proposition
00:20:43.534                             : :Julia Maddon
00:26:18.160                             : :Joyride
00:28:45.974                             : :Illegal In The U.S
00:37:46.473                             : :Back In The Game
00:42:07.608                             : :Taking Her For A Spin
00:50:33.614                             : :Attracting Attention
00:56:00.482                             : :Hot Pursuit
01:05:09.864                             : :Getting The Invite
01:12:09.325                             : :Inconvenience Store
01:18:21.030                             : :Her Turn Behind The Wheel
01:25:07.144                             : :Higher Stakes
01:32:55.653                             : :Anita
01:36:38.084                             : :Hospital Visit
01:39:49.442                             : :De Leon
01:49:47.873                             : :The Final Three
01:55:41.685                             : :The Finish Line
02:02:22.752                             : :End Credits

Дополнительно

Цитата:
За русский звук и сабы спасибо HDCLUB

Need for Speed 2014 720p BluRay DD-EX 5.1 x264-CRiSC

RELEASE:
         RELEASE.NAME....: Need.for.Speed.2014.720p.BluRay.DD5.1-EX.x264-CRiSC.mkv
         IMDb............: http://www.imdb.com/title/tt2369135/
         RUNTiME.........: 02:10:43
         SiZE............: 5.68 GB
         ViDEO.CODEC.....: x264
         FRAMERATE.......: 23.976
         BiTRATE.........: ~5499 kbps
         RESOLUTiON......: 1280x536
         AUDiO.1.........: English AC3 5.1 EX @ 640 kbps (Dolby Encoder)
         AUDiO.2.........: Commentary English AAC 2.0 @ 83 kbps
         CHAPTERS........: Yes
         SUBTiTLES.......: English .srt .sup
         ENCODER.........: Kuningas
         RELEASE.DATE....: 16.07.2014
         SOURCE..........: Blu-ray -CHDBits
         x264:
         x264 [info]: profile High, level 4.1
         x264 [info]: frame I:1589  Avg QP:14.27  size:117601
         x264 [info]: frame P:46812 Avg QP:16.19  size: 48309
         x264 [info]: frame B:139632 Avg QP:17.46  size: 21072
         x264 [info]: consecutive B-frames:  3.7%  4.6% 13.8% 21.0% 18.4% 32.6%  4.3%  1.7%
         encoded 188033 frames, 6.92 fps, 5498.84 kb/s
Source vs Encode







Display posts:    

Current time is: 13-Nov 20:56

All times are UTC ± 0


You cannot post new topics in this forum
You cannot reply to topics in this forum
You cannot edit your posts in this forum
You cannot delete your posts in this forum
You cannot vote in polls in this forum
You cannot attach files in this forum
You cannot download files in this forum

!ATTENTION!
The site does not give electronic versions of products, and is engaged only in a collecting and cataloguing of the references sent and published at a forum by our readers. If you are the legal owner of any submitted material and do not wish that the reference to it was in our catalogue, contact us and we shall immediately remove her. Files for an exchange on tracker are given by users of a site, and the administration does not bear the responsibility for their maintenance. The request to not fill in the files protected by copyrights, and also files of the illegal maintenance!