Важное объявление!
У Нас Все раздачи мультитрекерные, при нуле пиров в релизах, можете смело вставать на закачку!
 
Автор Сообщение

HUNTER

Стаж:
4 года 4 месяца
Сообщений:
56719

Репутация: 101

[+] [-]
Вне форума [Профиль] [ЛС]

National Geographic : Тайны животных Австралии / National Geographic : AustraliasAnimal Mysteries
Дата/Год выпуска: 1983
Страна: США
Жанр: Научно-популярный
Продолжительность: 00:55:56
Перевод: Студийный (одноголосый закадровый) Н. Дроздов
Русские субтитры: нет
Описание: Рассказ о животных Австралии
качество: DVDRip
формат: AVI
Видео: Video: 640x480 (1.33:1), 25 fps, XviD build 50 ~1999 kbps avg, 0.26 bit/pixe
Аудио: Audio: 44.100 kHz, MPEG Layer 3, 2 ch, ~128.00 kbps avg
MediaInfo
GeneralComplete name : H:\NG Тайны животных Австралии.aviFormat : AVIFormat/Info : Audio Video InterleaveFile size : 856 MiBDuration : 55mn 56sOverall bit rate : 2 140 KbpsWriting application : Lavf52.57.1
VideoID : 0Format : xvidCodec ID : xvidDuration : 55mn 56sBit rate : 2 000 KbpsWidth : 640 pixelsHeight : 480 pixelsDisplay aspect ratio : 4:3Frame rate : 25.000 fpsBits/(Pixel*Frame) : 0.260Stream size : 800 MiB (93%)
AudioID : 1Format : MPEG AudioFormat version : Version 1Format profile : Layer 3Mode : Joint stereoMode extension : MS StereoCodec ID : 55Codec ID/Hint : MP3Duration : 55mn 56sBit rate mode : ConstantBit rate : 128 KbpsChannel(s) : 2 channelsSampling rate : 44.1 KHzCompression mode : LossyStream size : 51.2 MiB (6%)Alignment : Aligned on interleavesInterleave, duration : 26 ms (0.65 video frame)Writing library : LAME3.98.2ЄЄЄЄЄЄЄЄЄЄ
СкриншотыСэмпл http://rusfolder.com/40794020

_________________
Показать сообщения:    

Текущее время: Сегодня 18:04

Часовой пояс: GMT



Вы не можете начинать темы
Вы не можете отвечать на сообщения
Вы не можете редактировать свои сообщения
Вы не можете удалять свои сообщения
Вы не можете голосовать в опросах
Вы не можете прикреплять файлы к сообщениям
Вы не можете скачивать файлы