Важное объявление!
У Нас Все раздачи мультитрекерные, при нуле пиров в релизах, можете смело вставать на закачку!
 
Автор Сообщение

HUNTER

Стаж:
4 года 4 месяца
Сообщений:
56839

Репутация: 101

[+] [-]
Вне форума [Профиль] [ЛС]

National Geographic. Морган Фриман. Истории о Боге / The Story of God
Дата/Год выпуска: 2016
Страна: США
Жанр: Документальный
Продолжительность: 00:50:00
Перевод: Профессиональный (одноголосый закадровый)
Доп. инфо о переводе: National Geographic Russia
Русские субтитры: нет
Оригинальная аудиодорожка: нет
Телеканал: National Geographic
Описание: Земное и божественное — две этих сущности с самого рождения человечества не дают нам покоя. С чего все началось? Есть ли кто-то, знающий обо всем больше нас? Как нам найти смысл жизни и гармонию? Морган Фриман, известный актер и мудрый человек, ищет свои собственные ответы на извечные вопросы в новом проекте канала National Geographic. 6 захватывающих серий отправят нас в удивительные места нашей планеты — от Каира до Гёбекли-Темпе, от Стоунхеджа до Варанаси. Вместе с автором программы мы окажемся и в пирамидах Египта, полных мистики, и в научных лабораториях с нейрологами и космологами, относящимися к религии, как к науке . 60 минут каждой серии наполнены не только сакральными знаниями, но и великолепными визуальными эффектами, и стилизованными сценами, максимально погружающими нас в атмосферу происходящего.
Сэмпл: http://sendfile.su/1221749
качество: SATRip
формат: AVI
Видео: 720 x 400 (16:9), XviD, 25.000 fps, 1800 Kbps
Аудио: AC3, 48.00 KHz, 2 channels, 192 Kbps

Список серий

01. Жизнь после смерти / Beyond death

MediaInfo

VideoID : 0Format : MPEG-4 VisualFormat profile : Advanced Simple@L5Format settings, BVOP : 2Format settings, QPel : NoFormat settings, GMC : No warppointsFormat settings, Matrix : Default (MPEG)Codec ID : XVIDCodec ID/Hint : XviDDuration : 49mn 59sBit rate : 1 802 KbpsWidth : 720 pixelsHeight : 400 pixelsDisplay aspect ratio : 16:9Frame rate : 25.000 fpsColor space : YUVChroma subsampling : 4:2:0Bit depth : 8 bitsScan type : ProgressiveCompression mode : LossyBits/(Pixel*Frame) : 0.250Stream size : 644 MiB (90%)Writing library : XviD 1.2.1 (UTC 2008-12-04)
AudioID : 1Format : AC-3Format/Info : Audio Coding 3Mode extension : CM (complete main)Format settings, Endianness : BigCodec ID : 2000Duration : 49mn 59sBit rate mode : ConstantBit rate : 192 KbpsChannel(s) : 2 channelsChannel positions : Front: L RSampling rate : 48.0 KHzFrame rate : 31.250 fps (1536 spf)Compression mode : LossyStream size : 68.7 MiB (10%)Alignment : Split accross interleavesInterleave, duration : 40 ms (1.00 video frame)Interleave, preload duration : 500 ms

Скриншоты


Релиз

Riper.am - Giggs
Внимание! Раздача ведётся путём добавления новых серий
Внимание! Раздача ведётся путём добавления новых серий; при каждом добавлении создаётся новый торрент. Чтобы начать докачку новой серии, пользователям необходимо сделать следующее:
(1) остановить скачивание,
(2) удалить старый торрент у себя из клиента (старые серии удалять не надо),
(3) скачать новый торрент и запустить его у себя в клиенте вместо старого, при этом указать клиенту путь в старую папку куда и должно происходить скачивание новых серий.
Ваш клиент при этом должен произвести хеширование (проверку) старой папки (если не производит сам - помогите ему сделать это), и будет докачивать только те серии которых у вас ещё нет. Старые серии при этом не удаляются, а продолжают раздаваться!
Eсли вы уже удалили старые серии, то предотвратить повторную закачку старых серий можно, отжав галочку в соответствующих местах при запуске нового торрента. По возможности, желательно не удалять старые серии как можно дольше чтобы релизёр не столько продолжал раздавать старые серии, а смог сконцентрироваться на новых.

_________________
Показать сообщения:    

Текущее время: Сегодня 23:00

Часовой пояс: GMT



Вы не можете начинать темы
Вы не можете отвечать на сообщения
Вы не можете редактировать свои сообщения
Вы не можете удалять свои сообщения
Вы не можете голосовать в опросах
Вы не можете прикреплять файлы к сообщениям
Вы не можете скачивать файлы