Важное объявление!
У Нас Все раздачи мультитрекерные, при нуле пиров в релизах, можете смело вставать на закачку!
 
Автор Сообщение

HUNTER

Стаж:
4 года 4 месяца
Сообщений:
56719

Репутация: 101

[+] [-]
Вне форума [Профиль] [ЛС]

National Geographic : Зубастые великаны / National Geographic : Toothed Titans
Дата/Год выпуска: 2000
Страна: США
Жанр: Научно-популярный
Продолжительность: 00:55:50
Перевод: Студийный (одноголосый закадровый)
Доп. инфо о переводе: (Ю.Сербин)
Описание: Рассказ о моржах
качество: DVDRip
формат: AVI
Видео: Video: 640x400 (1.33:1), 25 fps, XviD build 50 ~1999 kbps avg, 0.26 bit/pixe
Аудио: Audio: 44.100 kHz, MPEG Layer 3, 2 ch, ~128.00 kbps avg

MediaInfo

GeneralComplete name : H:\1\NG Зубастые великаны.aviFormat : AVIFormat/Info : Audio Video InterleaveFile size : 838 MiBDuration : 54mn 55sOverall bit rate : 2 132 KbpsWriting application : Lavf52.57.1
VideoID : 0Format : xvidCodec ID : xvidDuration : 54mn 55sBit rate : 1 992 KbpsWidth : 640 pixelsHeight : 400 pixelsDisplay aspect ratio : 16:10Frame rate : 25.000 fpsBits/(Pixel*Frame) : 0.311Stream size : 783 MiB (93%)
AudioID : 1Format : MPEG AudioFormat version : Version 1Format profile : Layer 3Mode : Joint stereoMode extension : MS StereoCodec ID : 55Codec ID/Hint : MP3Duration : 54mn 55sBit rate mode : ConstantBit rate : 128 KbpsChannel(s) : 2 channelsSampling rate : 44.1 KHzCompression mode : LossyStream size : 50.3 MiB (6%)Alignment : Aligned on interleavesInterleave, duration : 26 ms (0.65 video frame)

Скриншоты

http://rusfolder.com/43820322

_________________
Показать сообщения:    

Текущее время: Сегодня 23:50

Часовой пояс: GMT



Вы не можете начинать темы
Вы не можете отвечать на сообщения
Вы не можете редактировать свои сообщения
Вы не можете удалять свои сообщения
Вы не можете голосовать в опросах
Вы не можете прикреплять файлы к сообщениям
Вы не можете скачивать файлы