Важное объявление!
У Нас Все раздачи мультитрекерные, при нуле пиров в релизах, можете смело вставать на закачку!
 
Автор Сообщение

HUNTER

Стаж:
4 года 4 месяца
Сообщений:
56842

Репутация: 101

[+] [-]
Вне форума [Профиль] [ЛС]

Денежное Хранилище США
American's Money Vault
Год выпуска: 2012
Страна: США, National Geographic
Жанр: Документальный
Продолжительность: 00:45:00
Перевод: Студийный (одноголосый закадровый) АРК ТВ
Русские субтитры: нет-Режиссер: Жанин Батлер / Jeanine Butler-Описание: Перед Вами 20 миллионов долларов наличными. Вот здесь 300 тысяч по одному доллару.
30 миллионов в стодолларовых банкнотах. Будь то наличность, золото или биты, все мы знаем, что Миром правят деньги! А стоимость денег зависит от веры. Веры в бесперебойную работу неких внутренних механизмов. Джейк Ворд и канал National Geographic впервые покажут Вам закулисье системы. Они проведут Вас по зданиям, где нельзя снимать, прямо в крупнейшее в мире хранилище, того о чем Вы мечтаете. Это то, что Вам нужно и ради чего Вы готовы с ног сбиться. Это - Деньги!-
Качество: HDTVRip
Формат: AVI
Видео: 720x400 (16:9), 25,000 fps, XviD build (1.2.1), ~2000 kbps avg, 0.27 bit/pixel
Аудио: 48.0 kHz, AC3 Dolby Digital, 2/0 (L,R) ch, ~192.00 kbps avg

MediaInfo

ОбщееПолное имя : A:\Фильмы\Денежное Хранилище США 2012 HDTVRip.aviФормат : AVIФормат/Информация : Audio Video InterleaveРазмер файла : 708 МбайтПродолжительность : 44 м.Общий поток : 2201 Кбит/секПрограмма кодирования : VirtualDubMod 1.5.10.3 | www.virtualdub-fr.org || (build 2550/release)Библиотека кодирования : VirtualDubMod build 2550/release
ВидеоИдентификатор : 0Формат : MPEG-4 VisualПрофиль формата : Advanced Simple@L5Параметр BVOP формата : 2Параметр QPel формата : НетПараметр GMC формата : Без точки переходаПараметр матрицы формата : Default (H.263)Режим смешивания : Сжатый битовый потокИдентификатор кодека : XVIDИдентификатор кодека/Подсказка : XviDПродолжительность : 44 м.Битрейт : 2000 Кбит/секШирина : 720 пикселейВысота : 400 пикселейСоотношение сторон : 16:9Частота кадров : 25,000 кадров/секЦветовое пространство : YUVСубдискретизация насыщенности : 4:2:0Битовая глубина : 8 битТип развёртки : ПрогрессивнаяМетод сжатия : С потерямиБит/(Пиксели*Кадры) : 0.278Размер потока : 643 Мбайт (91%)Библиотека кодирования : XviD 1.2.1 (UTC 2008-12-04)
АудиоИдентификатор : 1Формат : AC-3Формат/Информация : Audio Coding 3Расширение режима : CM (complete main)Параметр Endianness формата : BigИдентификатор кодека : 2000Продолжительность : 44 м.Вид битрейта : ПостоянныйБитрейт : 192 Кбит/секКаналы : 2 каналаРасположение каналов : Front: L RЧастота : 48,0 КГцБитовая глубина : 16 битМетод сжатия : С потерямиРазмер потока : 61,8 Мбайт (9%)Выравнивание : Разделение по промежуткамПродолжительность промежутка : 40 мс. (1,00 видеокадр)Время предзагрузки промежутка : 500 мс.

Скриншоты



_________________
Показать сообщения:    

Текущее время: Сегодня 14:18

Часовой пояс: GMT



Вы не можете начинать темы
Вы не можете отвечать на сообщения
Вы не можете редактировать свои сообщения
Вы не можете удалять свои сообщения
Вы не можете голосовать в опросах
Вы не можете прикреплять файлы к сообщениям
Вы не можете скачивать файлы