Важное объявление!
У Нас Все раздачи мультитрекерные, при нуле пиров в релизах, можете смело вставать на закачку!
 
Автор Сообщение

HUNTER

Стаж:
4 года 4 месяца
Сообщений:
56734

Репутация: 101

[+] [-]
Вне форума [Профиль] [ЛС]

National Geographic : Гиганты Арктики / National Geographic : Battle of the Artic Giants
Дата/Год выпуска: 2004
Страна: США
Жанр: Научно-популярный
Продолжительность: 00:52:50
Перевод: Студийный (одноголосый закадровый)
Доп. инфо о переводе: (Ю.Сербин)
Описание: Рассказ о моржах
качество: DVDRip
формат: AVI
Видео: Video: 640x400 (1.60:1), 25 fps, XviD build 50 ~1976 kbps avg, 0.31 bit/pixel
Аудио: Audio: 44.100 kHz, MPEG Layer 3, 2 ch, ~128.00 kbps avg

MediaInfo

ОбщееПолное имя : H:\34\1\NG Гиганты Арктики.aviФормат : AVIФормат/Информация : Audio Video InterleaveРазмер файла : 788 МбайтПродолжительность : 52 м.Общий поток : 2085 Кбит/секПрограмма кодирования : Lavf52.57.1
ВидеоИдентификатор : 0Формат : xvidИдентификатор кодека : xvidПродолжительность : 52 м.Битрейт : 1944 Кбит/секШирина : 640 пикселейВысота : 400 пикселейСоотношение сторон : 16:10Частота кадров : 25,000 кадров/секБит/(Пиксели*Кадры) : 0.304Размер потока : 735 Мбайт (93%)
АудиоИдентификатор : 1Формат : MPEG AudioВерсия формата : Version 1Профиль формата : Layer 3Режим : Joint stereoРасширение режима : MS StereoИдентификатор кодека : 55Идентификатор кодека/Подсказка : MP3Продолжительность : 52 м.Вид битрейта : ПостоянныйБитрейт : 128 Кбит/секКаналы : 2 каналаЧастота : 44,1 КГцМетод сжатия : С потерямиРазмер потока : 48,4 Мбайт (6%)Выравнивание : Соединение по промежуткамПродолжительность промежутка : 26 мс. (0,65 видеокадр)Библиотека кодирования : LAME3.98.2

Скриншоты








http://sendfile.su/1166159

_________________
Показать сообщения:    

Текущее время: Сегодня 15:02

Часовой пояс: GMT



Вы не можете начинать темы
Вы не можете отвечать на сообщения
Вы не можете редактировать свои сообщения
Вы не можете удалять свои сообщения
Вы не можете голосовать в опросах
Вы не можете прикреплять файлы к сообщениям
Вы не можете скачивать файлы