Ивановский Торрент трекер
Яндекс.Погода
 

[Цитировать]
HUNTER

National Geographic : Дикие просторы Мадагаскара / National Geographic : Wilds of Madagascar
Дата/Год выпуска: 1989
Страна: США
Жанр: Научно-популярный
Продолжительность: 00:52:08
Перевод: Студийный (одноголосый закадровый)
Доп. инфо о переводе: (Ю.Сербин)
Русские субтитры: нет
Оригинальная аудиодорожка: нет
Описание: Рассказ о уникальное природе Мадагаскара
качество: DVDRip
формат: AVI
Видео: Video: 640x480 (1.33:1), 25 fps, XviD build 50 ~1999 kbps avg, 0.26 bit/pixe
Аудио: Audio: 44.100 kHz, MPEG Layer 3, 2 ch, ~128.00 kbps avg

MediaInfo

GeneralComplete name : H:\NG Дикие просторы Мадагаскара.aviFormat : AVIFormat/Info : Audio Video InterleaveFile size : 797 MiBDuration : 52mn 8sOverall bit rate : 2 138 KbpsWriting application : Lavf52.57.1
VideoID : 0Format : xvidCodec ID : xvidDuration : 52mn 8sBit rate : 1 997 KbpsWidth : 640 pixelsHeight : 480 pixelsDisplay aspect ratio : 4:3Frame rate : 25.000 fpsBits/(Pixel*Frame) : 0.260Stream size : 745 MiB (93%)
AudioID : 1Format : MPEG AudioFormat version : Version 1Format profile : Layer 3Mode : Joint stereoMode extension : MS StereoCodec ID : 55Codec ID/Hint : MP3Duration : 52mn 8sBit rate mode : ConstantBit rate : 128 KbpsChannel(s) : 2 channelsSampling rate : 44.1 KHzCompression mode : LossyStream size : 47.7 MiB (6%)Alignment : Aligned on interleavesInterleave, duration : 26 ms (0.65 video frame)

Скриншоты









Сэмпл http://rusfolder.com/40167971


Показать сообщения:    

Текущее время: 17-Дек 08:17

Часовой пояс: UTC ± 0


Вы не можете начинать темы
Вы не можете отвечать на сообщения
Вы не можете редактировать свои сообщения
Вы не можете удалять свои сообщения
Вы не можете голосовать в опросах
Вы не можете прикреплять файлы к сообщениям
Вы не можете скачивать файлы

!ВНИМАНИЕ!
Сайт не предоставляет электронные версии произведений, а занимается лишь коллекционированием и каталогизацией ссылок, присылаемых и публикуемых на форуме нашими читателями. Если вы являетесь правообладателем какого-либо представленного материала и не желаете, чтобы ссылка на него находилась в нашем каталоге, свяжитесь с нами, и мы незамедлительно удалим ее. Файлы для обмена на трекере предоставлены пользователями сайта, и администрация не несет ответственности за их содержание. Просьба не заливать файлы, защищенные авторскими правами, а также файлы нелегального содержания!