Ивановский Торрент трекер
Яндекс.Погода
 

[Цитировать]
HUNTER

National Geographic : Этоша - край сухой воды / National Geographic : Etosha - place of the dry water
Год выпуска: 1980
Страна: США
Жанр: Научно-популярный
Продолжительность: 00:54:33
Перевод: Студийный (одноголосый закадровый) Н. Дроздов
Русские субтитры: нет
Описание: Рассказ о парке Этоша ...
качество: DVDRip
формат: AVI
Видео: Video: 640x480 (1.33:1), 25 fps, XviD build 50 ~1999 kbps avg, 0.26 bit/pixe
Аудио: Audio: 44.100 kHz, MPEG Layer 3, 2 ch, ~128.00 kbps avg

MediaInfo

GeneralComplete name : H:\NG Этоша- край сухой воды.aviFormat : AVIFormat/Info : Audio Video InterleaveFile size : 640 MiBDuration : 54mn 33sOverall bit rate : 1 640 KbpsWriting application : Lavf52.57.1
VideoID : 0Format : xvidCodec ID : xvidDuration : 54mn 33sBit rate : 1 500 KbpsWidth : 640 pixelsHeight : 480 pixelsDisplay aspect ratio : 4:3Frame rate : 25.000 fpsBits/(Pixel*Frame) : 0.195Stream size : 585 MiB (91%)
AudioID : 1Format : MPEG AudioFormat version : Version 1Format profile : Layer 3Mode : Joint stereoMode extension : MS StereoCodec ID : 55Codec ID/Hint : MP3Duration : 54mn 33sBit rate mode : ConstantBit rate : 128 KbpsChannel(s) : 2 channelsSampling rate : 44.1 KHzCompression mode : LossyStream size : 49.9 MiB (8%)Alignment : Aligned on interleavesInterleave, duration : 26 ms (0.65 video frame)Writing library : LAME3.98.2ЄЄЄЄЄЄЄЄЄЄ

Скриншоты









Сэмпл http://rusfolder.com/39837827
Показать сообщения:    

Текущее время: 21-Сен 11:30

Часовой пояс: UTC - 1


Вы не можете начинать темы
Вы не можете отвечать на сообщения
Вы не можете редактировать свои сообщения
Вы не можете удалять свои сообщения
Вы не можете голосовать в опросах
Вы не можете прикреплять файлы к сообщениям
Вы не можете скачивать файлы

!ВНИМАНИЕ!
Сайт не предоставляет электронные версии произведений, а занимается лишь коллекционированием и каталогизацией ссылок, присылаемых и публикуемых на форуме нашими читателями. Если вы являетесь правообладателем какого-либо представленного материала и не желаете, чтобы ссылка на него находилась в нашем каталоге, свяжитесь с нами, и мы незамедлительно удалим ее. Файлы для обмена на трекере предоставлены пользователями сайта, и администрация не несет ответственности за их содержание. Просьба не заливать файлы, защищенные авторскими правами, а также файлы нелегального содержания!