Ивановский Торрент трекер
Яндекс.Погода
 

[Цитировать]
HUNTER

National Geographic : Узоры на траве / National Geographic : Patterns in the Grass
Дата/Год выпуска: 1991
Страна: США
Жанр: Научно-популярный
Продолжительность: 00:50:56
Перевод: Студийный (одноголосый закадровый)
Доп. инфо о переводе: Н.Дроздов
Русские субтитры: нет
Описание: Рассказ о зебрах
качество: DVDRip
формат: AVI
Видео: Video: 640x480 (1.33:1), 25 fps, XviD build 50 ~1999 kbps avg, 0.26 bit/pixe
Аудио: Audio: 44.100 kHz, MPEG Layer 3, 2 ch, ~128.00 kbps avg

MediaInfo

GeneralComplete name : H:\1\NG Узоры на траве.aviFormat : AVIFormat/Info : Audio Video InterleaveFile size : 777 MiBDuration : 50mn 46sOverall bit rate : 2 139 KbpsWriting application : Lavf52.47.0
VideoID : 0Format : xvidCodec ID : xvidDuration : 50mn 46sBit rate : 1 999 KbpsWidth : 640 pixelsHeight : 480 pixelsDisplay aspect ratio : 4:3Frame rate : 25.000 fpsBits/(Pixel*Frame) : 0.260Stream size : 726 MiB (93%)
AudioID : 1Format : MPEG AudioFormat version : Version 1Format profile : Layer 3Mode : Joint stereoMode extension : MS StereoCodec ID : 55Codec ID/Hint : MP3Duration : 50mn 46sBit rate mode : ConstantBit rate : 128 KbpsChannel(s) : 2 channelsSampling rate : 48.0 KHzCompression mode : LossyStream size : 46.5 MiB (6%)Alignment : Aligned on interleavesInterleave, duration : 24 ms (0.60 video frame)

Скриншоты










Сэмпл http://rusfolder.com/42525098
Показать сообщения:    

Текущее время: 21-Окт 18:37

Часовой пояс: UTC - 1


Вы не можете начинать темы
Вы не можете отвечать на сообщения
Вы не можете редактировать свои сообщения
Вы не можете удалять свои сообщения
Вы не можете голосовать в опросах
Вы не можете прикреплять файлы к сообщениям
Вы не можете скачивать файлы

!ВНИМАНИЕ!
Сайт не предоставляет электронные версии произведений, а занимается лишь коллекционированием и каталогизацией ссылок, присылаемых и публикуемых на форуме нашими читателями. Если вы являетесь правообладателем какого-либо представленного материала и не желаете, чтобы ссылка на него находилась в нашем каталоге, свяжитесь с нами, и мы незамедлительно удалим ее. Файлы для обмена на трекере предоставлены пользователями сайта, и администрация не несет ответственности за их содержание. Просьба не заливать файлы, защищенные авторскими правами, а также файлы нелегального содержания!