National Geographic . Убийство Кеннеди / Killing Kennedy [2013, Документальный, HDTVRip] :: Ивановский Торрент трекер
Важное объявление!
У Нас Все раздачи мультитрекерные, при нуле пиров в релизах, можете смело вставать на закачку!
Статистика раздачи
Размер:     |    Зарегистрирован:     |    Скачан:     |   
Нет
 
     
 
 
Автор Сообщение

HUNTER

Стаж:
4 года 11 месяцев
Сообщений:
66066

Репутация: 101

[+] [-]
Вне форума [Профиль] [ЛС]

Убийство Кеннеди / Killing Kennedy
Год выпуска: 2013
Страна: США, National Geographic
Жанр: Документальный
Продолжительность: 01:27:00
Перевод: Профессиональный (одноголосый) студия АРК ТВ
Режисер: Нельсон Маккормик
В ролях:Дженифер Гудвин,Мишель Треченберг,Роб Лоу,Уилл Ротхаар,Джек Ноузуорти,Кэйси Семашко,Джейми МакШейн,Ричард Флуд,Антониетта ЛаВеккия,Тейлор Робертс,Наталия Голд,Джосеф Грей,Бонни Джонсон,Демостенс Крисан,Френсис Гуинан,Брайан Хатчинсон,Уильям Л. Томас,Денни Маккарти,и др.
Русские субтитры: нет
Описание: Эта драма рассказывает об уникальных, но в то же время взаимосвязанных путях Ли Харви Освальда и Джона Ф. Кеннеди, двух мужчин, чьи жизни были наполнены смыслом и предназначением. Президентские победы Кеннеди и его промахи наряду с увлечением Освальда марксизмом и его последующим отказом от Америки завершится в Дили Плаза 22 ноября 1963 года. Там, где заканчивается путь Кеннеди, путь Освальда продолжается, пока его также трагически не убивают. "Убийство Кеннеди" подробно показывает предысторию, само убийство президента Джона Ф. Кеннеди и его последствия.
Официальный сайт РУ
Официальный сайт ЕНГ
качество: HDTVRip
формат: AVI
Видео: XviD. 720x400 (16:9) 25.00fps : 1322 Кбит/сек
Аудио: Русский, AC3, 48 kHz, 2 ch, 192 Кбит/с
Аудио: Английский AC3, 48 kHz, 2 ch, 192 Кбит/с

Релиз

MediaInfo

Format : AVI
Format/Info : Audio Video Interleave
File size : 1.05 GiB
Duration : 1h 27mn
Overall bit rate : 1 720 Kbps
Writing application : VirtualDubModRus 1.5.10.2 (build 2542/release)
Writing library : VirtualDubMod build 2542/release
Video
ID : 0
Format : MPEG-4 Visual
Format profile : Advanced Simple@L5
Format settings, BVOP : 2
Format settings, QPel : No
Format settings, GMC : No warppoints
Format settings, Matrix : Default (H.263)
Muxing mode : Packed bitstream
Codec ID : XVID
Codec ID/Hint : XviD
Duration : 1h 27mn
Bit rate : 1 322 Kbps
Width : 720 pixels
Height : 400 pixels
Display aspect ratio : 16:9
Frame rate : 23.976 fps
Color space : YUV
Chroma subsampling : 4:2:0
Bit depth : 8 bits
Scan type : Progressive
Compression mode : Lossy
Bits/(Pixel*Frame) : 0.191
Stream size : 828 MiB (77%)
Writing library : XviD 1.2.1 (UTC 2008-12-04)
Audio #1
ID : 1
Format : AC-3
Format/Info : Audio Coding 3
Mode extension : CM (complete main)
Format settings, Endianness : Big
Codec ID : 2000
Duration : 1h 27mn
Bit rate mode : Constant
Bit rate : 192 Kbps
Channel count : 2 channels
Channel positions : Front: L R
Sampling rate : 48.0 KHz
Bit depth : 16 bits
Compression mode : Lossy
Stream size : 120 MiB (11%)
Alignment : Split accross interleaves
Interleave, duration : 42 ms (1.00 video frame)
Interleave, preload duration : 500 ms
Audio #2
ID : 2
Format : AC-3
Format/Info : Audio Coding 3
Mode extension : CM (complete main)
Format settings, Endianness : Big
Codec ID : 2000
Duration : 1h 27mn
Bit rate mode : Constant
Bit rate : 192 Kbps
Channel count : 2 channels
Channel positions : Front: L R
Sampling rate : 48.0 KHz
Bit depth : 16 bits
Compression mode : Lossy
Stream size : 120 MiB (11%)
Alignment : Split accross interleaves
Interleave, duration : 42 ms (1.00 video frame)
Interleave, preload duration : 500 ms

Скриншоты


_________________
Показать сообщения:    

Текущее время: Сегодня 15:53

Часовой пояс: GMT



Вы не можете начинать темы
Вы не можете отвечать на сообщения
Вы не можете редактировать свои сообщения
Вы не можете удалять свои сообщения
Вы не можете голосовать в опросах
Вы не можете прикреплять файлы к сообщениям
Вы не можете скачивать файлы