National Geographic : Тропический лес / National Geographic : Tropical Forest [1983, Научно-популярный, DVDRip] :: Ивановский Торрент трекер
Важное объявление!
У Нас Все раздачи мультитрекерные, при нуле пиров в релизах, можете смело вставать на закачку!
Статистика раздачи
Размер:     |    Зарегистрирован:     |    Скачан:     |   
Нет
 
     
 
 
Автор Сообщение

HUNTER

Стаж:
4 года 11 месяцев
Сообщений:
66066

Репутация: 101

[+] [-]
Вне форума [Профиль] [ЛС]

National Geographic : Тропический лес / National Geographic : Tropical Forest
Дата/Год выпуска: 1983
Страна: США
Жанр: Научно-популярный
Продолжительность: 00:55:08
Перевод: Студийный (одноголосый закадровый) (Ю.Сербин)
Русские субтитры: нет
Описание: Рассказ о животных тропического леса Коста - Рики
Сэмпл: http://rusfolder.com/41207818
качество: DVDRip
формат: AVI
Видео: Video: 640x480 (1.33:1), 25 fps, XviD build 50 ~1999 kbps avg, 0.26 bit/pixe
Аудио: Audio: 44.100 kHz, MPEG Layer 3, 2 ch, ~128.00 kbps avg
MediaInfo
GeneralComplete name : H:\NG Тропический лес.aviFormat : AVIFormat/Info : Audio Video InterleaveFile size : 844 MiBDuration : 55mn 8sOverall bit rate : 2 141 KbpsWriting application : Lavf52.57.1
VideoID : 0Format : xvidCodec ID : xvidDuration : 55mn 8sBit rate : 2 001 KbpsWidth : 640 pixelsHeight : 480 pixelsDisplay aspect ratio : 4:3Frame rate : 25.000 fpsBits/(Pixel*Frame) : 0.260Stream size : 789 MiB (93%)
AudioID : 1Format : MPEG AudioFormat version : Version 1Format profile : Layer 3Mode : Joint stereoMode extension : MS StereoCodec ID : 55Codec ID/Hint : MP3Duration : 55mn 8sBit rate mode : ConstantBit rate : 128 KbpsChannel(s) : 2 channelsSampling rate : 44.1 KHzCompression mode : LossyStream size : 50.5 MiB (6%)Alignment : Aligned on interleavesInterleave, duration : 26 ms (0.65 video frame)
Скриншоты

_________________
Показать сообщения:    

Текущее время: Сегодня 22:37

Часовой пояс: GMT



Вы не можете начинать темы
Вы не можете отвечать на сообщения
Вы не можете редактировать свои сообщения
Вы не можете удалять свои сообщения
Вы не можете голосовать в опросах
Вы не можете прикреплять файлы к сообщениям
Вы не можете скачивать файлы