Ивановский Торрент трекер
Яндекс.Погода
 

[Цитировать]
HUNTER

Стихийные бедствия: силы природы
Natural Disasters: Forces of Nature
6.33 / 6.90- Год выпуска: 2004
Страна: США
Жанр: Документальный
Продолжительность: 00:40:22
Перевод: Авторский (одноголосый закадровый) В.Курдов
Русские субтитры: нет-Режиссер: Джордж Кэйси / George Casey-Описание: Вулканы, землетрясения и торнадо могут причинить огромный ущерб, и очень важно предсказать где они произойдут. Вулканолог доктор Мария Эдмондс разработала датчики, которые следят за активностью магмы под землёй, чтобы точнее предсказать извержения на карибском острове Монсеррат - месте, где производились съёмки крупного извержения в 1995 году для этого фильма. Геофизик доктор Росс Стейн изучал столетние записи о ремонтах после землетрясений в Соборе Святой Софии в Стамбуле, чтобы найти историческую связь землетрясений в Турции. Он обнаруживает рисунок землетрясений вдоль протяжённого Северо-Анатолийского разлома, включая разрушительное землятресение в Измите в 1999 году, и предсказывает следующее землетрясение всего в нескольких милях южнее Стамбула. Доктор Джошуа Вурман со своей командой гоняется за торнадо на грузовиках, оснащённых радаром Допплера, в попытке разобраться изнутри как же они зарождаются.- -Качество: BDRip-AVC
Формат: MKV
Видео: MPEG-4 AVC, 1024x576 (16:9), 23.976 fps, ~1848 kbps avg, 0.13 bit/pixel
Аудио: 48.0 kHz, AC3 Dolby Digital, 3/2 (L,C,R,l,r) + LFE ch, ~384.00 kbps avg

MediaInfo

ОбщееУникальный идентификатор : 211128889744727275305942881121145152706 (0x9ED5F1F1513C267D9FC19A799E4B64C2)Полное имя : A:\Фильмы\Forces of Nature.2004.BDRip-AVC.mkvФормат : MatroskaВерсия формата : Version 2Размер файла : 645 МбайтПродолжительность : 40 м.Общий поток : 2233 Кбит/секДата кодирования : UTC 2012-08-22 23:30:11Программа кодирования : mkvmerge v5.6.0 ('Kenya Kane') built on Jun 29 2012 15:01:44Библиотека кодирования : libebml v1.2.3 + libmatroska v1.3.0
ВидеоИдентификатор : 1Формат : AVCФормат/Информация : Advanced Video CodecПрофиль формата : High@L4.1Параметр CABAC формата : ДаПараметр ReFrames формата : 5 кадровИдентификатор кодека : V_MPEG4/ISO/AVCПродолжительность : 40 м.Битрейт : 1848 Кбит/секШирина : 1024 пикселяВысота : 576 пикселейСоотношение сторон : 16:9Режим частоты кадров : ПостоянныйЧастота кадров : 23,976 кадра/секЦветовое пространство : YUVСубдискретизация насыщенности : 4:2:0Битовая глубина : 8 битТип развёртки : ПрогрессивнаяБит/(Пиксели*Кадры) : 0.131Размер потока : 521 Мбайт (81%)Библиотека кодирования : x264 core 125 r2200 999b753Настройки программы : cabac=1 / ref=5 / deblock=1:-2:-2 / analyse=0x3:0x111 / me=umh / subme=9 / psy=1 / psy_rd=0.00:0.10 / mixed_ref=1 / me_range=32 / chroma_me=1 / trellis=2 / 8x8dct=1 / cqm=0 / deadzone=21,11 / fast_pskip=0 / chroma_qp_offset=-1 / threads=3 / lookahead_threads=1 / sliced_threads=0 / nr=0 / decimate=1 / interlaced=0 / bluray_compat=0 / constrained_intra=0 / bframes=5 / b_pyramid=2 / b_adapt=0 / b_bias=0 / direct=1 / weightb=1 / open_gop=0 / weightp=2 / keyint=250 / keyint_min=23 / scenecut=40 / intra_refresh=0 / rc_lookahead=50 / rc=2pass / mbtree=1 / bitrate=1848 / ratetol=1.0 / qcomp=0.60 / qpmin=0 / qpmax=69 / qpstep=4 / cplxblur=20.0 / qblur=0.5 / ip_ratio=1.40 / aq=1:1.00Default : ДаForced : Нет
АудиоИдентификатор : 2Формат : AC-3Формат/Информация : Audio Coding 3Расширение режима : CM (complete main)Параметр Endianness формата : BigИдентификатор кодека : A_AC3Продолжительность : 40 м.Вид битрейта : ПостоянныйБитрейт : 384 Кбит/секКаналы : 6 каналовРасположение каналов : Front: L C R, Side: L R, LFEЧастота : 48,0 КГцБитовая глубина : 16 битМетод сжатия : С потерямиРазмер потока : 111 Мбайт (17%)Default : ДаForced : Нет

Скриншоты




Показать сообщения:    

Текущее время: 17-Дек 11:56

Часовой пояс: UTC ± 0


Вы не можете начинать темы
Вы не можете отвечать на сообщения
Вы не можете редактировать свои сообщения
Вы не можете удалять свои сообщения
Вы не можете голосовать в опросах
Вы не можете прикреплять файлы к сообщениям
Вы не можете скачивать файлы

!ВНИМАНИЕ!
Сайт не предоставляет электронные версии произведений, а занимается лишь коллекционированием и каталогизацией ссылок, присылаемых и публикуемых на форуме нашими читателями. Если вы являетесь правообладателем какого-либо представленного материала и не желаете, чтобы ссылка на него находилась в нашем каталоге, свяжитесь с нами, и мы незамедлительно удалим ее. Файлы для обмена на трекере предоставлены пользователями сайта, и администрация не несет ответственности за их содержание. Просьба не заливать файлы, защищенные авторскими правами, а также файлы нелегального содержания!