Ивановский Торрент трекер
Яндекс.Погода
 

[Цитировать]
HUNTER

National Geographic : Рептилии ,и земноводные / National Geographic : Reptiles and Amphibias
Дата/Год выпуска: 1968
Страна: США
Жанр: Научно-популярный
Продолжительность: 00:49:42
Перевод: Студийный (одноголосый закадровый)
Русские субтитры: нет
Описание: Рассказ о рептилиях ,и земноводных
качество: DVDRip
формат: AVI
Видео: Video: 640x480 (1.33:1), 25 fps, XviD build 50 ~1999 kbps avg, 0.26 bit/pixe
Аудио: Audio: 44.100 kHz, MPEG Layer 3, 2 ch, ~128.00 kbps avg

MediaInfo

GeneralComplete name : H:\NG Рептилии ,и земноводные.aviFormat : AVIFormat/Info : Audio Video InterleaveFile size : 761 MiBDuration : 49mn 42sOverall bit rate : 2 141 KbpsWriting application : Lavf52.57.1
VideoID : 0Format : xvidCodec ID : xvidDuration : 49mn 42sBit rate : 2 000 KbpsWidth : 640 pixelsHeight : 480 pixelsDisplay aspect ratio : 4:3Frame rate : 25.000 fpsBits/(Pixel*Frame) : 0.260Stream size : 711 MiB (93%)
AudioID : 1Format : MPEG AudioFormat version : Version 1Format profile : Layer 3Mode : Joint stereoMode extension : MS StereoCodec ID : 55Codec ID/Hint : MP3Duration : 49mn 42sBit rate mode : ConstantBit rate : 128 KbpsChannel(s) : 2 channelsSampling rate : 44.1 KHzCompression mode : LossyStream size : 45.5 MiB (6%)Alignment : Aligned on interleavesInterleave, duration : 26 ms (0.65 video frame)

Скриншоты








Сэмпл http://rusfolder.com/40437479


Показать сообщения:    

Текущее время: 13-Дек 14:56

Часовой пояс: UTC ± 0


Вы не можете начинать темы
Вы не можете отвечать на сообщения
Вы не можете редактировать свои сообщения
Вы не можете удалять свои сообщения
Вы не можете голосовать в опросах
Вы не можете прикреплять файлы к сообщениям
Вы не можете скачивать файлы

!ВНИМАНИЕ!
Сайт не предоставляет электронные версии произведений, а занимается лишь коллекционированием и каталогизацией ссылок, присылаемых и публикуемых на форуме нашими читателями. Если вы являетесь правообладателем какого-либо представленного материала и не желаете, чтобы ссылка на него находилась в нашем каталоге, свяжитесь с нами, и мы незамедлительно удалим ее. Файлы для обмена на трекере предоставлены пользователями сайта, и администрация не несет ответственности за их содержание. Просьба не заливать файлы, защищенные авторскими правами, а также файлы нелегального содержания!