Важное объявление!
У Нас Все раздачи мультитрекерные, при нуле пиров в релизах, можете смело вставать на закачку!
 
Автор Сообщение

HUNTER

Стаж:
4 года 8 месяцев
Сообщений:
61985

Репутация: 101

[+] [-]
Вне форума [Профиль] [ЛС]

National Geographic : Раздумье о слонах / National Geographic : Reflections on Elephants
Дата/Год выпуска: 1994
Страна: США
Жанр: Научно-популярный
Продолжительность: 00:55:56
Перевод: Студийный (одноголосый закадровый)
Доп. инфо о переводе: Н.Дроздов
Описание: Рассказ о слонах
Сэмпл: http://rusfolder.com/42771039
качество: DVDRip
формат: AVI
Видео: Video: 640x480 (1.33:1), 25 fps, XviD build 50 ~1999 kbps avg, 0.26 bit/pixe
Аудио: Audio: 44.100 kHz, MPEG Layer 3, 2 ch, ~128.00 kbps avg

MediaInfo

GeneralComplete name : H:\1\NG Раздумье о слонах.aviFormat : AVIFormat/Info : Audio Video InterleaveFile size : 628 MiBDuration : 55mn 37sOverall bit rate : 1 578 KbpsWriting application : Lavf52.57.1
VideoID : 0Format : MPEG-4 VisualCodec ID : FMP4Duration : 55mn 37sBit rate : 1 437 KbpsWidth : 640 pixelsHeight : 480 pixelsDisplay aspect ratio : 4:3Frame rate : 25.000 fpsColor space : YUVChroma subsampling : 4:2:0Compression mode : LossyBits/(Pixel*Frame) : 0.187Stream size : 572 MiB (91%)
AudioID : 1Format : MPEG AudioFormat version : Version 1Format profile : Layer 3Mode : Joint stereoMode extension : MS StereoCodec ID : 55Codec ID/Hint : MP3Duration : 55mn 37sBit rate mode : ConstantBit rate : 128 KbpsChannel(s) : 2 channelsSampling rate : 48.0 KHzCompression mode : LossyStream size : 50.9 MiB (8%)Alignment : Aligned on interleavesInterleave, duration : 24 ms (0.60 video frame)

Скриншоты









_________________
Показать сообщения:    

Текущее время: Сегодня 05:01

Часовой пояс: GMT



Вы не можете начинать темы
Вы не можете отвечать на сообщения
Вы не можете редактировать свои сообщения
Вы не можете удалять свои сообщения
Вы не можете голосовать в опросах
Вы не можете прикреплять файлы к сообщениям
Вы не можете скачивать файлы
Наши партнеры: интернет магазин Ивановского трикотажа textilla.ru