Ивановский Торрент трекер
Яндекс.Погода
 

[Цитировать]
HUNTER

National Geographic : Путь к забытой реке / National Geographic : Journey to the forgotten River
Дата/Год выпуска: 1990
Страна: США
Жанр: Научно-популярный
Продолжительность: 00:54:56
Перевод: Студийный (одноголосый закадровый)
Доп. инфо о переводе: (Ю.Сербин)
Описание: Рассказ о животных Африки
качество: DVDRip
формат: AVI
Видео: Video: 640x480 (1.33:1), 25 fps, XviD build 50 ~1999 kbps avg, 0.26 bit/pixe
Аудио: Audio: 44.100 kHz, MPEG Layer 3, 2 ch, ~128.00 kbps avg

MediaInfo

GeneralComplete name : H:\1\NG Путь к забытой реке.aviFormat : AVIFormat/Info : Audio Video InterleaveFile size : 618 MiBDuration : 54mn 34sOverall bit rate : 1 585 KbpsWriting application : Lavf52.57.1
VideoID : 0Format : MPEG-4 VisualCodec ID : FMP4Duration : 54mn 34sBit rate : 1 444 KbpsWidth : 640 pixelsHeight : 480 pixelsDisplay aspect ratio : 4:3Frame rate : 25.000 fpsColor space : YUVChroma subsampling : 4:2:0Compression mode : LossyBits/(Pixel*Frame) : 0.188Stream size : 563 MiB (91%)
AudioID : 1Format : MPEG AudioFormat version : Version 1Format profile : Layer 3Mode : Joint stereoMode extension : MS StereoCodec ID : 55Codec ID/Hint : MP3Duration : 54mn 33sBit rate mode : ConstantBit rate : 128 KbpsChannel(s) : 2 channelsSampling rate : 48.0 KHzCompression mode : LossyStream size : 50.0 MiB (8%)Alignment : Aligned on interleavesInterleave, duration : 24 ms (0.60 video frame)Writing library : LAME3.98.2

Скриншоты









http://rusfolder.com/42902149
0 человек читают эту тему: 0 пользователей, 0 скрытых пользователей, 0 гостей

Показать сообщения:    

Текущее время: 23-Авг 01:12

Часовой пояс: UTC - 1


Вы не можете начинать темы
Вы не можете отвечать на сообщения
Вы не можете редактировать свои сообщения
Вы не можете удалять свои сообщения
Вы не можете голосовать в опросах
Вы не можете прикреплять файлы к сообщениям
Вы не можете скачивать файлы

!ВНИМАНИЕ!
Сайт не предоставляет электронные версии произведений, а занимается лишь коллекционированием и каталогизацией ссылок, присылаемых и публикуемых на форуме нашими читателями. Если вы являетесь правообладателем какого-либо представленного материала и не желаете, чтобы ссылка на него находилась в нашем каталоге, свяжитесь с нами, и мы незамедлительно удалим ее. Файлы для обмена на трекере предоставлены пользователями сайта, и администрация не несет ответственности за их содержание. Просьба не заливать файлы, защищенные авторскими правами, а также файлы нелегального содержания!