Важное объявление!
У Нас Все раздачи мультитрекерные, при нуле пиров в релизах, можете смело вставать на закачку!
 
Автор Сообщение

HUNTER

Стаж:
4 года 7 месяцев
Сообщений:
61439

Репутация: 101

[+] [-]
Вне форума [Профиль] [ЛС]

National Geographic: Последние тайны Третьего рейха: Семья Гитлера / Nazi underworld. Hitler's family-
Дата/Год выпуска: 2011
Страна: США / ZDF Production
Жанр: Документальный
Продолжительность: 00:44:59
Перевод: Студийный (одноголосый закадровый)
Доп. инфо о переводе: АРК ТВ
Русские субтитры: нет
Режиссер: Флориан Беер, Томас Стайхлер / Florian Beier, Thomas Staehler
Телеканал: National Geographic
Описание: В основе гитлеровской идеологии лежал миф о чистоте расы, главное происхождение, в роду последователей фюрера должны быть только немцы. Из-за происхождения многих выгнали из партии, некоторых даже казнили, при этом происхождение самого фюрера оставалось тайной. Оказывается, его предки были далеки от нацистского идеала о чистоте расы "господ". Сам Гитлер говорил: "Никто не должен знать кто я, и пусть никто не узнает откуда я, и из какой семьи"...
Сэмпл: http://multi-up.com/966442
качество: HDTVRip (Semiy.Gitlera.2011.HDTVRip.mkv)
формат: AVI
Видео: 720x400 (16:9), 25 fps, XviD MPEG-4 ~1980 kbps avg, 0.275 bit/pixel
Аудио: 48 kHz, AC3 Dolby Digital, 2/0 (L,R) ch, ~192 kbps - Профессиональный ((одноголосый закадровый) АРК ТВ
&

MediaInfo

ОбщееПолное имя : E:\Фильмы М\Nazi.underworld.Hitler's.family.2011.HDTVRip.aviФормат : AVIФормат/Информация : Audio Video InterleaveРазмер файла : 702 МбайтПродолжительность : 44 м.Общий поток : 2182 Кбит/секНазвание фильма : Nazi.underworld.Hitler's.family.2011.HDTVRipРежиссёр : rip by maygliПрограмма кодирования : VirtualDubModRus 1.5.10.2 (build 2542/release)Правообладатель : ... (RG Rulya74)
ВидеоИдентификатор : 0Формат : MPEG-4 VisualПрофиль формата : Advanced Simple@L5Параметр BVOP формата : 1Параметр QPel формата : НетПараметр GMC формата : Без точки переходаПараметр матрицы формата : ВыборочнаяИдентификатор кодека : XVIDИдентификатор кодека/Подсказка : XviDПродолжительность : 44 м.Битрейт : 1980 Кбит/секШирина : 720 пикселейВысота : 400 пикселейСоотношение сторон : 16:9Частота кадров : 25,000 кадров/секЦветовое пространство : YUVСубдискретизация насыщенности : 4:2:0Битовая глубина : 8 битТип развёртки : ПрогрессивнаяМетод сжатия : С потерямиБит/(Пиксели*Кадры) : 0.275Размер потока : 637 Мбайт (91%)Библиотека кодирования : XviD 65
АудиоИдентификатор : 1Формат : AC-3Формат/Информация : Audio Coding 3Расширение режима : CM (complete main)Параметр Endianness формата : BigИдентификатор кодека : 2000Продолжительность : 44 м.Вид битрейта : ПостоянныйБитрейт : 192 Кбит/секКаналы : 2 каналаРасположение каналов : Front: L RЧастота : 48,0 КГцБитовая глубина : 16 битМетод сжатия : С потерямиРазмер потока : 61,8 Мбайт (9%)Выравнивание : Разделение по промежуткамПродолжительность промежутка : 40 мс. (1,00 видеокадр)Время предзагрузки промежутка : 500 мс.Заголовок : Профессиональный (одноголосый закадровый) АРК ТВ

Скриншоты


_________________
Показать сообщения:    

Текущее время: Сегодня 09:44

Часовой пояс: GMT



Вы не можете начинать темы
Вы не можете отвечать на сообщения
Вы не можете редактировать свои сообщения
Вы не можете удалять свои сообщения
Вы не можете голосовать в опросах
Вы не можете прикреплять файлы к сообщениям
Вы не можете скачивать файлы
Наши партнеры: интернет магазин Ивановского трикотажа textilla.ru