Ивановский Торрент трекер
Яндекс.Погода
 

[Цитировать]
HUNTER

Неисследованные глубины
Alien Deep with Bob Ballard
7.80 / 7.60- Год выпуска: 2012
Страна: США
Жанр: Документальный, научно-познавательный, путешествия
Продолжительность: 5х ~ 00:45:00
Перевод: Профессиональный (дублированный)
Русские субтитры: нет-Режиссер: Кирк Вольфингер, Гарри Джонстоун, Кэти Крофф Белл / Kirk Wolfinger, Harry Johnstone, Kathy Bell Kroff-Описание: Он посвятил жизнь исследованию неизвестного. Он был там, где не ступала нога человека. Он видел жизнь, которую не видел никто другой. Это его страсть. Он нашел "Титаник". Он выжил в разрушительных глубинах и бурных волнах. Но даже через 50 лет в море, он так же очарован им, как во время первой своей экспедиции. Он - это доктор Роберт Беллард, и своё самое важное открытие он ещё только собирается совершить...- -Качество: BDRip
Формат: MKV
Видео: MPEG-4 AVC, 1024x576 (16:9), 25.000 fps, ~2500 kbps avg, 0.17 bit/pixel
Аудио# 1: Russian| 48.0 kHz, AC3 Dolby Digital, 2/0 (L,R) ch, ~192.00 kbps avg
Аудио# 2: English|48.0 kHz, AC3 Dolby Digital, 3/2 (L,C,R,l,r) + LFE ch, ~448.00 kbps avg

Список выпусков/серий

1. Огонь сотворения / Fires of Creation
Боб Баллард отправляется в подводную одиссею на Гавайи к вулкану Мауна-Кеа, высота которого над уровнем моря 4200 м, а глубина под водой 6000 м.-2. Обломки в бездне / Mediterranean Sea
Используя технологию, выработанную за 50 лет работы в море, Боб Баллард разыскивает в Средиземном море обломки самых старых в мире кораблей.-3. Истоки жизни / It's Alive
Роберт Баллард исследует подводные вулканы и геотермальные источники, чтобы выяснить, появилась ли жизнь на Земле из недр планеты.-4. Сила океана / Ocean's Fur
Роберт Баллард исследует волны, отрицающие гравитацию, и неизвестные глубинные течения, а также мощных существ, приводящих океан в движение.-5. Море или космос? / Inner vs. Outer Space
В связи с быстрым ростом населения мира пригодная для жизни земля почти закончилась. Боб Баллард выясняет, поможет ли космос решить эту проблему.

MediaInfo

ОбщееУникальный идентификатор : 214939919006951900947876283766686505441 (0xA1B3EC31371CA11B83C436D0943659E1)Полное имя : A:\Фильмы\Neissledovannye.glubinyi.(5.serij.iz.5).2012.x264.BDRip.(AVC)\Istoki.zhizni.(3.seriya.iz.5).2012.x264.BDRip.(AVC).mkvФормат : MatroskaВерсия формата : Version 2Размер файла : 1013 МбайтПродолжительность : 45 м.Общий поток : 3142 Кбит/секНазвание фильма : Istoki.zhizni.(3.seriya.iz.5).2012.x264.BDRip.(AVC).ExKinoRayДата кодирования : UTC 2013-07-27 09:50:00Программа кодирования : mkvmerge v4.0.0 ('The Stars were mine') сборка от Jun 6 2010 16:18:42Библиотека кодирования : libebml v1.0.0 + libmatroska v1.0.0
ВидеоИдентификатор : 1Формат : AVCФормат/Информация : Advanced Video CodecПрофиль формата : High@L4.1Параметр CABAC формата : ДаПараметр ReFrames формата : 8 кадровИдентификатор кодека : V_MPEG4/ISO/AVCПродолжительность : 45 м.Битрейт : 2500 Кбит/секШирина : 1024 пикселяВысота : 576 пикселейСоотношение сторон : 16:9Режим частоты кадров : ПостоянныйЧастота кадров : 25,000 кадров/секЦветовое пространство : YUVСубдискретизация насыщенности : 4:2:0Битовая глубина : 8 битТип развёртки : ПрогрессивнаяБит/(Пиксели*Кадры) : 0.170Размер потока : 787 Мбайт (78%)Заголовок : Rip by Enigma-Vladislav71Библиотека кодирования : x264 core 129 r2245 bc13772Настройки программы : cabac=1 / ref=8 / deblock=1:-2:-2 / analyse=0x3:0x133 / me=umh / subme=11 / psy=1 / psy_rd=1.00:0.00 / mixed_ref=1 / me_range=48 / chroma_me=1 / trellis=2 / 8x8dct=1 / cqm=0 / deadzone=21,11 / fast_pskip=0 / chroma_qp_offset=-2 / threads=3 / lookahead_threads=1 / sliced_threads=0 / nr=0 / decimate=0 / interlaced=0 / bluray_compat=0 / constrained_intra=0 / bframes=8 / b_pyramid=2 / b_adapt=2 / b_bias=0 / direct=3 / weightb=1 / open_gop=0 / weightp=2 / keyint=250 / keyint_min=25 / scenecut=40 / intra_refresh=0 / rc_lookahead=40 / rc=2pass / mbtree=1 / bitrate=2500 / ratetol=1.0 / qcomp=0.60 / qpmin=10 / qpmax=51 / qpstep=4 / cplxblur=20.0 / qblur=0.5 / ip_ratio=1.40 / aq=2:1.00Язык : EnglishDefault : НетForced : Нет
Аудио #1Идентификатор : 2Формат : AC-3Формат/Информация : Audio Coding 3Профиль формата : Dolby DigitalРасширение режима : CM (complete main)Параметр Endianness формата : BigИдентификатор кодека : A_AC3Продолжительность : 45 м.Вид битрейта : ПостоянныйБитрейт : 192 Кбит/секКаналы : 2 каналаРасположение каналов : Front: L RЧастота : 48,0 КГцБитовая глубина : 16 битМетод сжатия : С потерямиРазмер потока : 61,9 Мбайт (6%)Язык : RussianDefault : ДаForced : Нет
Аудио #2Идентификатор : 3Формат : AC-3Формат/Информация : Audio Coding 3Расширение режима : CM (complete main)Параметр Endianness формата : BigИдентификатор кодека : A_AC3Продолжительность : 45 м.Вид битрейта : ПостоянныйБитрейт : 448 Кбит/секКаналы : 6 каналовРасположение каналов : Front: L C R, Side: L R, LFEЧастота : 48,0 КГцБитовая глубина : 16 битМетод сжатия : С потерямиРазмер потока : 144 Мбайт (14%)Язык : EnglishDefault : НетForced : Нет
ОбщееУникальный идентификатор : 227883909837901865304534293525302799523 (0xAB70D83666869833906DAEFAD3D6ECA3)Полное имя : A:\Фильмы\Neissledovannye.glubinyi.(5.serij.iz.5).2012.x264.BDRip.(AVC)\More.ili.kosmos.(5.seriya.iz.5).2012.x264.BDRip.(AVC).mkvФормат : MatroskaВерсия формата : Version 2Размер файла : 1013 МбайтПродолжительность : 45 м.Общий поток : 3141 Кбит/секНазвание фильма : More.ili.kosmos.(5.seriya.iz.5).2012.x264.BDRip.(AVC).ExKinoRayДата кодирования : UTC 2013-07-27 12:00:17Программа кодирования : mkvmerge v4.0.0 ('The Stars were mine') сборка от Jun 6 2010 16:18:42Библиотека кодирования : libebml v1.0.0 + libmatroska v1.0.0
ВидеоИдентификатор : 1Формат : AVCФормат/Информация : Advanced Video CodecПрофиль формата : High@L4.1Параметр CABAC формата : ДаПараметр ReFrames формата : 8 кадровИдентификатор кодека : V_MPEG4/ISO/AVCПродолжительность : 45 м.Битрейт : 2500 Кбит/секШирина : 1024 пикселяВысота : 576 пикселейСоотношение сторон : 16:9Режим частоты кадров : ПостоянныйЧастота кадров : 25,000 кадров/секЦветовое пространство : YUVСубдискретизация насыщенности : 4:2:0Битовая глубина : 8 битТип развёртки : ПрогрессивнаяБит/(Пиксели*Кадры) : 0.170Размер потока : 786 Мбайт (78%)Заголовок : Rip by Enigma-Vladislav71Библиотека кодирования : x264 core 129 r2245 bc13772Настройки программы : cabac=1 / ref=8 / deblock=1:-2:-2 / analyse=0x3:0x133 / me=umh / subme=11 / psy=1 / psy_rd=1.00:0.00 / mixed_ref=1 / me_range=48 / chroma_me=1 / trellis=2 / 8x8dct=1 / cqm=0 / deadzone=21,11 / fast_pskip=0 / chroma_qp_offset=-2 / threads=3 / lookahead_threads=1 / sliced_threads=0 / nr=0 / decimate=0 / interlaced=0 / bluray_compat=0 / constrained_intra=0 / bframes=8 / b_pyramid=2 / b_adapt=2 / b_bias=0 / direct=3 / weightb=1 / open_gop=0 / weightp=2 / keyint=250 / keyint_min=25 / scenecut=40 / intra_refresh=0 / rc_lookahead=40 / rc=2pass / mbtree=1 / bitrate=2500 / ratetol=1.0 / qcomp=0.60 / qpmin=10 / qpmax=51 / qpstep=4 / cplxblur=20.0 / qblur=0.5 / ip_ratio=1.40 / aq=2:1.00Язык : EnglishDefault : НетForced : Нет
Аудио #1Идентификатор : 2Формат : AC-3Формат/Информация : Audio Coding 3Профиль формата : Dolby DigitalРасширение режима : CM (complete main)Параметр Endianness формата : BigИдентификатор кодека : A_AC3Продолжительность : 45 м.Вид битрейта : ПостоянныйБитрейт : 192 Кбит/секКаналы : 2 каналаРасположение каналов : Front: L RЧастота : 48,0 КГцБитовая глубина : 16 битМетод сжатия : С потерямиРазмер потока : 61,9 Мбайт (6%)Язык : RussianDefault : ДаForced : Нет
Аудио #2Идентификатор : 3Формат : AC-3Формат/Информация : Audio Coding 3Расширение режима : CM (complete main)Параметр Endianness формата : BigИдентификатор кодека : A_AC3Продолжительность : 45 м.Вид битрейта : ПостоянныйБитрейт : 448 Кбит/секКаналы : 6 каналовРасположение каналов : Front: L C R, Side: L R, LFEЧастота : 48,0 КГцБитовая глубина : 16 битМетод сжатия : С потерямиРазмер потока : 144 Мбайт (14%)Язык : EnglishDefault : НетForced : Нет
ОбщееУникальный идентификатор : 177724599922214903087861871951590403429 (0x85B4834C65177F89A73C536F4BC72D65)Полное имя : A:\Фильмы\Neissledovannye.glubinyi.(5.serij.iz.5).2012.x264.BDRip.(AVC)\Oblomki.v.bezdne.(2.seriya.iz.5).2012.x264.BDRip.(AVC).mkvФормат : MatroskaВерсия формата : Version 2Размер файла : 1013 МбайтПродолжительность : 45 м.Общий поток : 3142 Кбит/секНазвание фильма : Oblomki.v.bezdne.(2.seriya.iz.5).2012.x264.BDRip.(AVC).ExKinoRayДата кодирования : UTC 2013-07-27 09:42:24Программа кодирования : mkvmerge v4.0.0 ('The Stars were mine') сборка от Jun 6 2010 16:18:42Библиотека кодирования : libebml v1.0.0 + libmatroska v1.0.0
ВидеоИдентификатор : 1Формат : AVCФормат/Информация : Advanced Video CodecПрофиль формата : High@L4.1Параметр CABAC формата : ДаПараметр ReFrames формата : 8 кадровИдентификатор кодека : V_MPEG4/ISO/AVCПродолжительность : 45 м.Битрейт : 2500 Кбит/секШирина : 1024 пикселяВысота : 576 пикселейСоотношение сторон : 16:9Режим частоты кадров : ПостоянныйЧастота кадров : 25,000 кадров/секЦветовое пространство : YUVСубдискретизация насыщенности : 4:2:0Битовая глубина : 8 битТип развёртки : ПрогрессивнаяБит/(Пиксели*Кадры) : 0.170Размер потока : 787 Мбайт (78%)Заголовок : Rip by Enigma-Vladislav71Библиотека кодирования : x264 core 129 r2245 bc13772Настройки программы : cabac=1 / ref=8 / deblock=1:-2:-2 / analyse=0x3:0x133 / me=umh / subme=11 / psy=1 / psy_rd=1.00:0.00 / mixed_ref=1 / me_range=48 / chroma_me=1 / trellis=2 / 8x8dct=1 / cqm=0 / deadzone=21,11 / fast_pskip=0 / chroma_qp_offset=-2 / threads=3 / lookahead_threads=1 / sliced_threads=0 / nr=0 / decimate=0 / interlaced=0 / bluray_compat=0 / constrained_intra=0 / bframes=8 / b_pyramid=2 / b_adapt=2 / b_bias=0 / direct=3 / weightb=1 / open_gop=0 / weightp=2 / keyint=250 / keyint_min=25 / scenecut=40 / intra_refresh=0 / rc_lookahead=40 / rc=2pass / mbtree=1 / bitrate=2500 / ratetol=1.0 / qcomp=0.60 / qpmin=10 / qpmax=51 / qpstep=4 / cplxblur=20.0 / qblur=0.5 / ip_ratio=1.40 / aq=2:1.00Язык : EnglishDefault : НетForced : Нет
Аудио #1Идентификатор : 2Формат : AC-3Формат/Информация : Audio Coding 3Профиль формата : Dolby DigitalРасширение режима : CM (complete main)Параметр Endianness формата : BigИдентификатор кодека : A_AC3Продолжительность : 45 м.Вид битрейта : ПостоянныйБитрейт : 192 Кбит/секКаналы : 2 каналаРасположение каналов : Front: L RЧастота : 48,0 КГцБитовая глубина : 16 битМетод сжатия : С потерямиРазмер потока : 61,9 Мбайт (6%)Язык : RussianDefault : ДаForced : Нет
Аудио #2Идентификатор : 3Формат : AC-3Формат/Информация : Audio Coding 3Расширение режима : CM (complete main)Параметр Endianness формата : BigИдентификатор кодека : A_AC3Продолжительность : 45 м.Вид битрейта : ПостоянныйБитрейт : 448 Кбит/секКаналы : 6 каналовРасположение каналов : Front: L C R, Side: L R, LFEЧастота : 48,0 КГцБитовая глубина : 16 битМетод сжатия : С потерямиРазмер потока : 144 Мбайт (14%)Язык : EnglishDefault : НетForced : Нет
ОбщееУникальный идентификатор : 208777109188334265632497878889143477673 (0x9D1102357FF0AE2C8C762568991025A9)Полное имя : A:\Фильмы\Neissledovannye.glubinyi.(5.serij.iz.5).2012.x264.BDRip.(AVC)\Ogon.sotvorenija i.(1.seriya.iz.5).2012.x264.BDRip.(AVC).mkvФормат : MatroskaВерсия формата : Version 2Размер файла : 1013 МбайтПродолжительность : 45 м.Общий поток : 3142 Кбит/секНазвание фильма : Ogon.sotvorenija i.(1.seriya.iz.5).2012.x264.BDRip.(AVC).ExKinoRayДата кодирования : UTC 2013-07-27 09:34:11Программа кодирования : mkvmerge v4.0.0 ('The Stars were mine') сборка от Jun 6 2010 16:18:42Библиотека кодирования : libebml v1.0.0 + libmatroska v1.0.0
ВидеоИдентификатор : 1Формат : AVCФормат/Информация : Advanced Video CodecПрофиль формата : High@L4.1Параметр CABAC формата : ДаПараметр ReFrames формата : 8 кадровИдентификатор кодека : V_MPEG4/ISO/AVCПродолжительность : 45 м.Битрейт : 2500 Кбит/секШирина : 1024 пикселяВысота : 576 пикселейСоотношение сторон : 16:9Режим частоты кадров : ПостоянныйЧастота кадров : 25,000 кадров/секЦветовое пространство : YUVСубдискретизация насыщенности : 4:2:0Битовая глубина : 8 битТип развёртки : ПрогрессивнаяБит/(Пиксели*Кадры) : 0.170Размер потока : 787 Мбайт (78%)Заголовок : Rip by Enigma-Vladislav71Библиотека кодирования : x264 core 129 r2245 bc13772Настройки программы : cabac=1 / ref=8 / deblock=1:-2:-2 / analyse=0x3:0x133 / me=umh / subme=11 / psy=1 / psy_rd=1.00:0.00 / mixed_ref=1 / me_range=48 / chroma_me=1 / trellis=2 / 8x8dct=1 / cqm=0 / deadzone=21,11 / fast_pskip=0 / chroma_qp_offset=-2 / threads=3 / lookahead_threads=1 / sliced_threads=0 / nr=0 / decimate=0 / interlaced=0 / bluray_compat=0 / constrained_intra=0 / bframes=8 / b_pyramid=2 / b_adapt=2 / b_bias=0 / direct=3 / weightb=1 / open_gop=0 / weightp=2 / keyint=250 / keyint_min=25 / scenecut=40 / intra_refresh=0 / rc_lookahead=40 / rc=2pass / mbtree=1 / bitrate=2500 / ratetol=1.0 / qcomp=0.60 / qpmin=10 / qpmax=51 / qpstep=4 / cplxblur=20.0 / qblur=0.5 / ip_ratio=1.40 / aq=2:1.00Язык : EnglishDefault : НетForced : Нет
Аудио #1Идентификатор : 2Формат : AC-3Формат/Информация : Audio Coding 3Профиль формата : Dolby DigitalРасширение режима : CM (complete main)Параметр Endianness формата : BigИдентификатор кодека : A_AC3Продолжительность : 45 м.Вид битрейта : ПостоянныйБитрейт : 192 Кбит/секКаналы : 2 каналаРасположение каналов : Front: L RЧастота : 48,0 КГцБитовая глубина : 16 битМетод сжатия : С потерямиРазмер потока : 61,9 Мбайт (6%)Язык : RussianDefault : ДаForced : Нет
Аудио #2Идентификатор : 3Формат : AC-3Формат/Информация : Audio Coding 3Расширение режима : CM (complete main)Параметр Endianness формата : BigИдентификатор кодека : A_AC3Продолжительность : 45 м.Вид битрейта : ПостоянныйБитрейт : 448 Кбит/секКаналы : 6 каналовРасположение каналов : Front: L C R, Side: L R, LFEЧастота : 48,0 КГцБитовая глубина : 16 битМетод сжатия : С потерямиРазмер потока : 144 Мбайт (14%)Язык : EnglishDefault : НетForced : Нет
ОбщееУникальный идентификатор : 212738666013043054944110434285269481490 (0xA00BFA0A584EEC8AB442C41C4202F812)Полное имя : A:\Фильмы\Neissledovannye.glubinyi.(5.serij.iz.5).2012.x264.BDRip.(AVC)\Sila.okeana.(4.seriya.iz.5).2012.x264.BDRip.(AVC).mkvФормат : MatroskaВерсия формата : Version 2Размер файла : 1013 МбайтПродолжительность : 45 м.Общий поток : 3142 Кбит/секНазвание фильма : Sila.okeana.(4.seriya.iz.5).2012.x264.BDRip.(AVC).ExKinoRayДата кодирования : UTC 2013-07-27 09:58:36Программа кодирования : mkvmerge v4.0.0 ('The Stars were mine') сборка от Jun 6 2010 16:18:42Библиотека кодирования : libebml v1.0.0 + libmatroska v1.0.0
ВидеоИдентификатор : 1Формат : AVCФормат/Информация : Advanced Video CodecПрофиль формата : High@L4.1Параметр CABAC формата : ДаПараметр ReFrames формата : 8 кадровИдентификатор кодека : V_MPEG4/ISO/AVCПродолжительность : 45 м.Битрейт : 2500 Кбит/секШирина : 1024 пикселяВысота : 576 пикселейСоотношение сторон : 16:9Режим частоты кадров : ПостоянныйЧастота кадров : 25,000 кадров/секЦветовое пространство : YUVСубдискретизация насыщенности : 4:2:0Битовая глубина : 8 битТип развёртки : ПрогрессивнаяБит/(Пиксели*Кадры) : 0.170Размер потока : 787 Мбайт (78%)Заголовок : Rip by Enigma-Vladislav71Библиотека кодирования : x264 core 129 r2245 bc13772Настройки программы : cabac=1 / ref=8 / deblock=1:-2:-2 / analyse=0x3:0x133 / me=umh / subme=11 / psy=1 / psy_rd=1.00:0.00 / mixed_ref=1 / me_range=48 / chroma_me=1 / trellis=2 / 8x8dct=1 / cqm=0 / deadzone=21,11 / fast_pskip=0 / chroma_qp_offset=-2 / threads=3 / lookahead_threads=1 / sliced_threads=0 / nr=0 / decimate=0 / interlaced=0 / bluray_compat=0 / constrained_intra=0 / bframes=8 / b_pyramid=2 / b_adapt=2 / b_bias=0 / direct=3 / weightb=1 / open_gop=0 / weightp=2 / keyint=250 / keyint_min=25 / scenecut=40 / intra_refresh=0 / rc_lookahead=40 / rc=2pass / mbtree=1 / bitrate=2500 / ratetol=1.0 / qcomp=0.60 / qpmin=10 / qpmax=51 / qpstep=4 / cplxblur=20.0 / qblur=0.5 / ip_ratio=1.40 / aq=2:1.00Язык : EnglishDefault : НетForced : Нет
Аудио #1Идентификатор : 2Формат : AC-3Формат/Информация : Audio Coding 3Профиль формата : Dolby DigitalРасширение режима : CM (complete main)Параметр Endianness формата : BigИдентификатор кодека : A_AC3Продолжительность : 45 м.Вид битрейта : ПостоянныйБитрейт : 192 Кбит/секКаналы : 2 каналаРасположение каналов : Front: L RЧастота : 48,0 КГцБитовая глубина : 16 битМетод сжатия : С потерямиРазмер потока : 61,9 Мбайт (6%)Язык : RussianDefault : ДаForced : Нет
Аудио #2Идентификатор : 3Формат : AC-3Формат/Информация : Audio Coding 3Расширение режима : CM (complete main)Параметр Endianness формата : BigИдентификатор кодека : A_AC3Продолжительность : 45 м.Вид битрейта : ПостоянныйБитрейт : 448 Кбит/секКаналы : 6 каналовРасположение каналов : Front: L C R, Side: L R, LFEЧастота : 48,0 КГцБитовая глубина : 16 битМетод сжатия : С потерямиРазмер потока : 144 Мбайт (14%)Язык : EnglishDefault : НетForced : Нет

Скриншоты


Показать сообщения:    

Текущее время: 23-Окт 14:28

Часовой пояс: UTC - 1


Вы не можете начинать темы
Вы не можете отвечать на сообщения
Вы не можете редактировать свои сообщения
Вы не можете удалять свои сообщения
Вы не можете голосовать в опросах
Вы не можете прикреплять файлы к сообщениям
Вы не можете скачивать файлы

!ВНИМАНИЕ!
Сайт не предоставляет электронные версии произведений, а занимается лишь коллекционированием и каталогизацией ссылок, присылаемых и публикуемых на форуме нашими читателями. Если вы являетесь правообладателем какого-либо представленного материала и не желаете, чтобы ссылка на него находилась в нашем каталоге, свяжитесь с нами, и мы незамедлительно удалим ее. Файлы для обмена на трекере предоставлены пользователями сайта, и администрация не несет ответственности за их содержание. Просьба не заливать файлы, защищенные авторскими правами, а также файлы нелегального содержания!