Важное объявление!
У Нас Все раздачи мультитрекерные, при нуле пиров в релизах, можете смело вставать на закачку!
Статистика раздачи
Размер:     |    Зарегистрирован:     |    Скачан:     |   
Нет
 
     
 
 
Автор Сообщение

HUNTER

Стаж:
5 лет
Сообщений:
67979

Репутация: 101

[+] [-]
Вне форума [Профиль] [ЛС]

NG: Наука будущего Стивена Хокинга: Гиперсвязи
Stephen Hawking's. Science Of the future. Hyper Connections
Дата/Год выпуска: 2013
Страна: США
Жанр: Документальный, научно-популярный
Продолжительность: 00:43:53
Перевод: Одноголосый закадровый
Доп. инфо о переводе: студия "Велес"
Русские субтитры: нет
Оригинальная аудиодорожка: нет
Телеканал: National Geographic
Описание: Наука скоро изменит вашу жизнь. Стивен Хокинг предлагает заглянуть Вас в будущее. В нашей программе пять известных ученых исследуют революционные новации. Ударная волна прогресса уже близко. Мы поможем Вам с ней встретиться.
Сэмпл
качество: SATRip
формат: AVI
Видео: 720x400 (1.80:1), 25 fps, XviD build 73, 1449 kbps avg, 0.20 bit/pixel
Аудио: 48 kHz, AC3 Dolby Digital, 2/0 (L,R) ch, 192 kbps

СкриншотыMediaInfo
Общее
Кол-во : 284
Кол-во потоков такого типа : 1
Тип потока : General
Тип потока : Общее
Идентификатор типа потока : 0
Inform : AVI: 518 Мбайт, 43 м.
Кол-во видеопотоков : 1
Кол-во аудиопотоков : 1
Video_Format_List : MPEG-4 Visual
Video_Format_WithHint_List : MPEG-4 Visual (XviD)
Видеокодеки : XviD
Audio_Format_List : AC-3
Audio_Format_WithHint_List : AC-3
Аудиокодеки : AC3
Полное имя : Q:\National.Geographic.Nauka.Budushego.Stivena.Hokinga.Giversvyazi.Sat.Rip.avi
Имя папки : Q:
Имя файла : National.Geographic.Nauka.Budushego.Stivena.Hokinga.Giversvyazi.Sat.Rip
Расширение : avi
Формат : AVI
Формат : AVI
Формат/Информация : Audio Video Interleave
Формат/Используется в : avi
Коммерческое название : AVI
Интернет-тип носителя : video/vnd.avi
Чередующаяся : Yes
Кодек : AVI
Кодек : AVI
Кодек/Информация : Audio Video Interleave
Кодек/Используется в : avi
Размер файла : 543574016
Размер файла : 518 Мбайт
Размер файла : 518 Мбайт
Размер файла : 518 Мбайт
Размер файла : 518 Мбайт
Размер файла : 518,4 Мбайт
Продолжительность : 2633080
Продолжительность : 43 м.
Продолжительность : 43 м. 53 с. 80 мс.
Продолжительность : 43 м.
Продолжительность : 00:43:53.080
Общий поток : 1651523
Общий поток : 1652 Кбит/сек
Размер потока : 3203349
Размер потока : 3,05 Мбайт (1%)
Размер потока : 3 Мбайт
Размер потока : 3,1 Мбайт
Размер потока : 3,05 Мбайт
Размер потока : 3,055 Мбайт
Размер потока : 3,05 Мбайт (1%)
Пропорции потока : 0.00589
Дата файла : UTC 2014-05-16 16:59:29.825
Дата файла (местная) : 2014-05-16 20:59:29.825
Дата изменения файла : UTC 2014-05-16 17:06:13.365
Дата изменения файла (местная) : 2014-05-16 21:06:13.365
Программа кодирования : VirtualDubMod 1.5.10.3 | www.virtualdub-fr.org || (build 2550/release)
Библиотека кодирования : VirtualDubMod build 2550/release
Библиотека кодирования : VirtualDubMod build 2550/release
Видео
Кол-во : 263
Кол-во потоков такого типа : 1
Тип потока : Video
Тип потока : Видео
Идентификатор типа потока : 0
StreamOrder : 0
Inform : 1450 Кбит/сек, 720*400 (16:9), в 25,000 кадров/сек, MPEG-4 Visual (XviD) (Advanced Simple@L5) (BVOP1)
Идентификатор : 0
Идентификатор : 0
Формат : MPEG-4 Visual
Коммерческое название : MPEG-4 Visual
Профиль формата : Advanced Simple@L5
Настройки формата : BVOP1
Параметр BVOP формата : 1
Параметр BVOP формата : 1
Параметр QPel формата : No
Параметр QPel формата : Нет
Параметр GMC формата : 0
Параметр GMC формата : Без точки перехода
Параметр матрицы формата : Default (H.263)
Параметр матрицы формата : Default (H.263)
Интернет-тип носителя : video/MP4V-ES
Идентификатор кодека : XVID
Идентификатор кодека/Подсказка : XviD
Идентификатор кодека/Ссылка : http://mediaarea.net/XVID
Кодек : XVID
Кодек : XviD
Кодек/Семейство : MPEG-4V
Кодек/Информация : XviD project
Кодек/Ссылка : http://www.xvid.org/Downloads.15.0.html
Кодек/CC : XVID
Профиль кодека : Advanced Simple@L5
Настройки кодека : BVOP
Параметр пакетного потока данных кодека : No
Параметр BVOP кодека : Yes
Параметр QPel кодека : No
Параметр GMC кодека : 0
Параметр GMC кодека : Без точки перехода
Параметр матрицы кодека : Default (H.263)
Продолжительность : 2633080
Продолжительность : 43 м.
Продолжительность : 43 м. 53 с. 80 мс.
Продолжительность : 43 м.
Продолжительность : 00:43:53.080
Битрейт : 1449790
Битрейт : 1450 Кбит/сек
Ширина : 720
Ширина : 720 пикселей
Высота : 400
Высота : 400 пикселей
Пропорции пикселя : 1.000
Соотношение сторон : 1.800
Соотношение сторон : 16:9
Частота кадров : 25.000
Частота кадров : 25,000 кадров/сек
Счётчик кадров : 65827
Разрешение : 8
Разрешение : 8 бит
Колориметрия : 4:2:0
Цветовое пространство : YUV
Субдискретизация насыщенности : 4:2:0
Битовая глубина : 8
Битовая глубина : 8 бит
Тип развёртки : Progressive
Тип развёртки : Прогрессивная
Переплетение : PPF
Переплетение : Прогрессивная
Метод сжатия : Lossy
Метод сжатия : С потерями
Бит/(Пиксели*Кадры) : 0.201
Задержка : 0
Задержка : 00:00:00.000
Размер потока : 477176747
Размер потока : 455 Мбайт (88%)
Размер потока : 455 Мбайт
Размер потока : 455 Мбайт
Размер потока : 455 Мбайт
Размер потока : 455,1 Мбайт
Размер потока : 455 Мбайт (88%)
Пропорции потока : 0.87785
Библиотека кодирования : XviD0073
Библиотека кодирования : XviD 73
Библиотека кодирования/Имя : XviD
Библиотека кодирования/Version : 73
Аудио
Кол-во : 235
Кол-во потоков такого типа : 1
Тип потока : Audio
Тип потока : Аудио
Идентификатор типа потока : 0
StreamOrder : 1
Inform : 192 Кбит/сек, 48,0 КГц, 16 бит, 2 канала, AC-3
Идентификатор : 1
Идентификатор : 1
Формат : AC-3
Формат/Информация : Audio Coding 3
Коммерческое название : AC-3
Расширение режима : CM (complete main)
Параметр Endianness формата : Big
Идентификатор кодека : 2000
Кодек : AC3
Кодек : AC3
Кодек/Семейство : AC3
Кодек/Информация : Dolby AC3
Кодек/CC : 2000
Продолжительность : 2633080
Продолжительность : 43 м.
Продолжительность : 43 м. 53 с. 80 мс.
Продолжительность : 43 м.
Продолжительность : 00:43:53.080
Вид битрейта : CBR
Вид битрейта : Постоянный
Битрейт : 192000
Битрейт : 192 Кбит/сек
Каналы : 2
Каналы : 2 канала
Расположение каналов : Front: L R
Расположение каналов : 2/0/0
Частота : 48000
Частота : 48,0 КГц
Количество образцов : 126387840
Разрешение : 16
Разрешение : 16 бит
Битовая глубина : 16
Битовая глубина : 16 бит
Метод сжатия : Lossy
Метод сжатия : С потерями
Задержка : 0
Задержка : 00:00:00.000
Задержка в оригинале : Stream
Задержка в оригинале : 'Сырой' поток
Задержка видео : 0
Задержка видео : 0
Размер потока : 63193920
Размер потока : 60,3 Мбайт (12%)
Размер потока : 60 Мбайт
Размер потока : 60 Мбайт
Размер потока : 60,3 Мбайт
Размер потока : 60,27 Мбайт
Размер потока : 60,3 Мбайт (12%)
Пропорции потока : 0.11626
Выравнивание : Split
Выравнивание : Разделение по промежуткам
Продолжительность промежутка : 1.00
Продолжительность промежутка : 40
Продолжительность промежутка : 40 мс. (1,00 видеокадр)
Время предзагрузки промежутка : 500
Время предзагрузки промежутка : 500 мс.
bsid : 8
dialnorm : -31
dialnorm/String : -31 dB
dsurmod : 0
acmod : 2
lfeon : 0
dialnorm_Average : -31
dialnorm_Average/String : -31 dB
dialnorm_Minimum : -31
dialnorm_Minimum/String : -31 dB
dialnorm_Maximum : -31
dialnorm_Maximum/String : -31 dB
dialnorm_Count : 389

_________________
Показать сообщения:    

Текущее время: Сегодня 04:28

Часовой пояс: GMT



Вы не можете начинать темы
Вы не можете отвечать на сообщения
Вы не можете редактировать свои сообщения
Вы не можете удалять свои сообщения
Вы не можете голосовать в опросах
Вы не можете прикреплять файлы к сообщениям
Вы не можете скачивать файлы