Ивановский Торрент трекер
Яндекс.Погода
 

[Цитировать]
HUNTER

National Geographic : Лавина-Белая смерть / National Geographic : Avalanche- The White Death
Дата/Год выпуска: 1999
Страна: США
Жанр: Научно-популярный
Продолжительность: 00:54:50
Перевод: Студийный (одноголосый закадровый)
Доп. инфо о переводе: (Ю.Сербин)
Русские субтитры: нет
Режиссер: Барри Нью
Barry Nye
Описание: Рассказ о лавинах
Сэмпл: http://sendfile.su/1133608
качество: DVDRip
формат: AVI
Видео: Video: 640x400 (1.60:1), 25 fps, XviD build 50 ~1976 kbps avg, 0.31 bit/pixel
Аудио: Audio: 44.100 kHz, MPEG Layer 3, 2 ch, ~128.00 kbps avg

MediaInfo

GeneralComplete name : H:\1\NG Лавина- Белая смерть.aviFormat : AVIFormat/Info : Audio Video InterleaveFile size : 836 MiBDuration : 55mn 12sOverall bit rate : 2 117 KbpsWriting application : Lavf52.57.1
VideoID : 0Format : xvidCodec ID : xvidDuration : 55mn 12sBit rate : 1 977 KbpsWidth : 640 pixelsHeight : 400 pixelsDisplay aspect ratio : 16:10Frame rate : 25.000 fpsBits/(Pixel*Frame) : 0.309Stream size : 781 MiB (93%)
AudioID : 1Format : MPEG AudioFormat version : Version 1Format profile : Layer 3Mode : Joint stereoMode extension : MS StereoCodec ID : 55Codec ID/Hint : MP3Duration : 55mn 12sBit rate mode : ConstantBit rate : 128 KbpsChannel(s) : 2 channelsSampling rate : 44.1 KHzCompression mode : LossyStream size : 50.5 MiB (6%)Alignment : Aligned on interleavesInterleave, duration : 26 ms (0.65 video frame)Writing library : LAME3.98.2ЄЄЄЄЄЄЄЄЄЄ

Скриншоты











Показать сообщения:    

Текущее время: 11-Дек 00:40

Часовой пояс: UTC ± 0


Вы не можете начинать темы
Вы не можете отвечать на сообщения
Вы не можете редактировать свои сообщения
Вы не можете удалять свои сообщения
Вы не можете голосовать в опросах
Вы не можете прикреплять файлы к сообщениям
Вы не можете скачивать файлы

!ВНИМАНИЕ!
Сайт не предоставляет электронные версии произведений, а занимается лишь коллекционированием и каталогизацией ссылок, присылаемых и публикуемых на форуме нашими читателями. Если вы являетесь правообладателем какого-либо представленного материала и не желаете, чтобы ссылка на него находилась в нашем каталоге, свяжитесь с нами, и мы незамедлительно удалим ее. Файлы для обмена на трекере предоставлены пользователями сайта, и администрация не несет ответственности за их содержание. Просьба не заливать файлы, защищенные авторскими правами, а также файлы нелегального содержания!