Важное объявление!
У Нас Все раздачи мультитрекерные, при нуле пиров в релизах, можете смело вставать на закачку!
 
Автор Сообщение

HUNTER

Стаж:
4 года 10 месяцев
Сообщений:
65486

Репутация: 101

[+] [-]
Вне форума [Профиль] [ЛС]

National Geographic : Крылья над Серенгети / National Geographic : Wings ower Serengeti
Дата/Год выпуска: 1995
Страна: США
Жанр: Научно-популярный
Продолжительность: 00:51:56
Перевод: Студийный (одноголосый закадровый)
Доп. инфо о переводе: (Ю.Сербин)
Русские субтитры: нет
Описание: Рассказ о природе Серенгети
качество: DVDRip
формат: AVI
Видео: Video: 640x480 (1.33:1), 25 fps, XviD build 50 ~1999 kbps avg, 0.26 bit/pixe
Аудио: Audio: 44.100 kHz, MPEG Layer 3, 2 ch, ~128.00 kbps avg

MediaInfo

GeneralComplete name : H:\1\NG Крылья над Серенгети.aviFormat : AVIFormat/Info : Audio Video InterleaveFile size : 787 MiBDuration : 51mn 42sOverall bit rate : 2 130 KbpsWriting application : Lavf52.47.0
VideoID : 0Format : xvidCodec ID : xvidDuration : 51mn 42sBit rate : 1 989 KbpsWidth : 640 pixelsHeight : 480 pixelsDisplay aspect ratio : 4:3Frame rate : 25.000 fpsBits/(Pixel*Frame) : 0.259Stream size : 735 MiB (93%)
AudioID : 1Format : MPEG AudioFormat version : Version 1Format profile : Layer 3Mode : Joint stereoMode extension : MS StereoCodec ID : 55Codec ID/Hint : MP3Duration : 51mn 41sBit rate mode : ConstantBit rate : 128 KbpsChannel(s) : 2 channelsSampling rate : 48.0 KHzCompression mode : LossyStream size : 47.3 MiB (6%)Alignment : Aligned on interleavesInterleave, duration : 24 ms (0.60 video frame)

Скриншоты








http://rusfolder.com/42537529

_________________
Показать сообщения:    

Текущее время: Сегодня 13:30

Часовой пояс: GMT



Вы не можете начинать темы
Вы не можете отвечать на сообщения
Вы не можете редактировать свои сообщения
Вы не можете удалять свои сообщения
Вы не можете голосовать в опросах
Вы не можете прикреплять файлы к сообщениям
Вы не можете скачивать файлы