Ивановский Торрент трекер
Яндекс.Погода
Статистика раздачи
Размер:  27.84 GB   |    Зарегистрирован:  7 дней   |    Скачан:  0 раз
Сидов:  4  [  0 KB/s  ]   Личеров:  1  [  0 KB/s  ]   Подробная статистика пиров
 
     
 
 

[Цитировать]
HUNTER

Дураков нет / Нас не проведешь / Nobody's Fool
Страна: США
Жанр: Драма, мелодрама, комедия
Год выпуска: 2018
Продолжительность: 01:50:21
Перевод: Профессиональный (дублированный) iTunes
Субтитры: Русские (форс., полные), английские
Оригинальная аудиодорожка: Английский
Режиссер: Тайлер Перри / Tyler Perry
В ролях: Мисси Пайл, Тиффани Хэддиш, Вупи Голдберг, Кортни Хенгелер, Тика Самптер, Омари Хардвик, Мехкад Брукс, Джон Рудницкий, Эмбер Райли, Тринити Уайтсайд
Описание: В фильме героиня Хэддиш, горластая и непосредственная Таня, выходит из тюрьмы. На свободе у Тани есть сестра Даника, добившаяся высот в карьере, но страдающая из-за отсутствия личной жизни. Когда выясняется, что ее новый интернет-знакомый не тот, за кого себя выдает, Таня решает помочь сестре.

Тип релиза: BDRemux 1080p
Контейнер: MKV
Видео: MPEG-4 AVC, 1080p, 1920:1080 (16:9), 32534 kbps, 23.976 fps
Аудио 1: АС3, 6 ch, 48 kHz, 384 kbps Русский Dub iTunes
Аудио 2: DTS-HD MA, 6 ch, 48 kHz, 3191 kbps, 24-bit (DTS Core 6 ch, 48 kHz, 1509 kbps) Английский
Формат субтитров: SRT

MediaInfo

General
Unique ID : 125506550852212586381671370877558250505 (0x5E6BAEB51026ECBCD2E721E83B7ADC09)
Complete name : G:\ФИЛЬМЫ\RuTRACKER\Nobodys.Fool.2018.REMUX.mkv
Format : Matroska
Format version : Version 4 / Version 2
File size : 27.8 GiB
Duration : 1 h 50 min
Overall bit rate mode : Variable
Overall bit rate : 36.1 Mb/s
Movie name : Nobodys.Fool.2018.1080p.BluRay.REMUX.AVC.DTS-HD.MA.5.1-FGT
Encoded date : UTC 2019-02-10 06:47:18
Writing application : mkvmerge v20.0.0 ('I Am The Sun') 64-bit
Writing library : libebml v1.3.5 + libmatroska v1.4.8
Video
ID : 1
Format : AVC
Format/Info : Advanced Video Codec
Format profile : High@L4.1
Format settings : CABAC / 4 Ref Frames
Format settings, CABAC : Yes
Format settings, RefFrames : 4 frames
Codec ID : V_MPEG4/ISO/AVC
Duration : 1 h 50 min
Bit rate mode : Variable
Bit rate : 32.5 Mb/s
Maximum bit rate : 36.3 Mb/s
Width : 1 920 pixels
Height : 1 080 pixels
Display aspect ratio : 16:9
Frame rate mode : Constant
Frame rate : 23.976 (24000/1001) FPS
Color space : YUV
Chroma subsampling : 4:2:0
Bit depth : 8 bits
Scan type : Progressive
Bits/(Pixel*Frame) : 0.654
Stream size : 25.1 GiB (90%)
Language : English
Default : Yes
Forced : No
Audio #1
ID : 2
Format : AC-3
Format/Info : Audio Coding 3
Codec ID : A_AC3
Duration : 1 h 50 min
Bit rate mode : Constant
Bit rate : 384 kb/s
Channel(s) : 6 channels
Channel positions : Front: L C R, Side: L R, LFE
Sampling rate : 48.0 kHz
Frame rate : 31.250 FPS (1536 SPF)
Bit depth : 16 bits
Compression mode : Lossy
Stream size : 303 MiB (1%)
Language : Russian
Service kind : Complete Main
Default : Yes
Forced : No
Audio #2
ID : 3
Format : DTS
Format/Info : Digital Theater Systems
Format profile : MA / Core
Codec ID : A_DTS
Duration : 1 h 50 min
Bit rate mode : Variable / Constant
Bit rate : 3 191 kb/s / 1 509 kb/s
Channel(s) : 6 channels
Channel positions : Front: L C R, Side: L R, LFE
Sampling rate : 48.0 kHz
Frame rate : 93.750 FPS (512 SPF)
Bit depth : 24 bits
Compression mode : Lossless / Lossy
Stream size : 2.46 GiB (9%)
Language : English
Default : No
Forced : No
Text #1
ID : 4
Format : UTF-8
Codec ID : S_TEXT/UTF8
Codec ID/Info : UTF-8 Plain Text
Duration : 1 h 49 min
Bit rate : 1 b/s
Count of elements : 38
Stream size : 1.37 KiB (0%)
Title : forced
Language : Russian
Default : Yes
Forced : Yes
Text #2
ID : 5
Format : UTF-8
Codec ID : S_TEXT/UTF8
Codec ID/Info : UTF-8 Plain Text
Duration : 1 h 49 min
Bit rate : 137 b/s
Count of elements : 2094
Stream size : 111 KiB (0%)
Language : Russian
Default : No
Forced : No
Text #3
ID : 6
Format : UTF-8
Codec ID : S_TEXT/UTF8
Codec ID/Info : UTF-8 Plain Text
Duration : 1 h 45 min
Bit rate : 97 b/s
Count of elements : 2256
Stream size : 75.7 KiB (0%)
Language : English
Default : No
Forced : No
Menu
00:00:00.000 : en:Chapter 01
00:08:01.731 : en:Chapter 02
00:12:06.392 : en:Chapter 03
00:22:15.792 : en:Chapter 04
00:30:30.829 : en:Chapter 05
00:38:17.295 : en:Chapter 06
00:46:45.385 : en:Chapter 07
00:53:31.124 : en:Chapter 08
01:02:06.305 : en:Chapter 09
01:09:06.934 : en:Chapter 10
01:13:29.154 : en:Chapter 11
01:20:32.285 : en:Chapter 12
01:25:34.087 : en:Chapter 13
01:32:33.256 : en:Chapter 14
01:37:10.491 : en:Chapter 15
01:43:12.352 : en:Chapter 16

Скриншоты

[iv-torrents.ru].t93528.torrent
Торрент: Зарегистрирован [ 2019-02-11 09:18 ] · CD0E019DAE35A12BCBF61C7818CBD019472DCAC7

Скачать .torrent

Скачать

140 KB

Статус: проверено
Скачан: 0 раз
Размер: 27.84 GB
terms.php


Показать сообщения:    

Текущее время: 18-Фев 14:04

Часовой пояс: UTC ± 0


Вы не можете начинать темы
Вы не можете отвечать на сообщения
Вы не можете редактировать свои сообщения
Вы не можете удалять свои сообщения
Вы не можете голосовать в опросах
Вы не можете прикреплять файлы к сообщениям
Вы можете скачивать файлы

!ВНИМАНИЕ!
Сайт не предоставляет электронные версии произведений, а занимается лишь коллекционированием и каталогизацией ссылок, присылаемых и публикуемых на форуме нашими читателями. Если вы являетесь правообладателем какого-либо представленного материала и не желаете, чтобы ссылка на него находилась в нашем каталоге, свяжитесь с нами, и мы незамедлительно удалим ее. Файлы для обмена на трекере предоставлены пользователями сайта, и администрация не несет ответственности за их содержание. Просьба не заливать файлы, защищенные авторскими правами, а также файлы нелегального содержания!