Ивановский Торрент трекер
Яндекс.Погода
 

[Цитировать]
HUNTER

Наркоз / Awake
Страна: США
Жанр: триллер, драма, мелодрама, криминал
Год выпуска: 2007
Продолжительность: 01:20:39Перевод: Профессиональный (дублированный)
Субтитры: русские, украинские
Оригинальная аудиодорожка: английскаяРежиссер: Джоби Харольд / Joby HaroldВ ролях: Хейден Кристенсен, Джессика Альба, Терренс Ховард, Лена Олин, Кристофер МакДональд, Сэм Робардс, Арлисс Ховард, Фишер Стивенс, Джорджина Чапмэн, Дэвид ХарборОписание: Клай Бересфорд вынужден лечь под нож. Однако в процессе операции на сердце он неожиданно приходит в себя. Находясь в парализованном состоянии, будучи не в силах пошевелить ни рукой, ни ногой, он, тем не менее, чувствует каждое касание скальпеля к своей плоти…Дополнительные материалы: "Под скальпелем хирурга" - рассказ о съемках, удаленные сцены, раскадровка, коллекция ошибок, трейлеры, анонсыМеню: есть, анимированноеТип релиза: DVD9
Контейнер: DVD-VideoВидео: PAL 16:9 (720x576(0.724)) MPEG Video, 25,000 кадр/сек, 7511 Кбит/сек
Аудио: Russian (Dolby AC-3, 6ch) 384 Кбит/сек, 48.0 КГц
Аудио 2: English (Dolby AC-3, 6ch) 384 Кбит/сек, 48.0 КГц
Аудио 3: Russian (DTS, 6ch) 768 Кбит/сек, 48.0 КГц

MediaInfo

Общее
Полное имя : AWAKE\VIDEO_TS\VTS_13_1.VOB
Формат : MPEG-PS
Размер файла : 1024 Мбайт
Продолжительность : 15 м. 31 с.
Режим общего битрейта : Переменный
Общий поток : 9217 Кбит/секВидео
Идентификатор : 224 (0xE0)
Формат : MPEG Video
Версия формата : Version 2
Профиль формата : Main@Main
Параметр BVOP формата : Да
Параметр матрицы формата : Выборочная
Параметр GOP формата : M=3, N=12
Структура изображения : Frame
Продолжительность : 15 м. 31 с.
Вид битрейта : Переменный
Битрейт : 7511 Кбит/сек
Максимальный битрейт : 9800 Кбит/сек
Ширина : 720 пикселей
Высота : 576 пикселей
Соотношение сторон : 4:3
Частота кадров : 25,000 кадров/сек
Стандарт вещания : PAL
Цветовое пространство : YUV
Субдискретизация насыщенности : 4:2:0
Битовая глубина : 8 бит
Тип развёртки : Чересстрочная
Порядок развёртки : Верхнее поле первое
Метод сжатия : С потерями
Бит/(Пиксели*Кадры) : 0.724
Временной код первого кадра : 00:00:00:00
Оригинал временного кода : Group of pictures header
GOP, открыто/закрыто : Закрыто
Размер потока : 834 Мбайт (81%)Аудио #1
Идентификатор : 189 (0xBD)-128 (0x80)
Формат : AC-3
Формат/Информация : Audio Coding 3
Параметр Endianness формата : Big
Режим смешивания : DVD-Video
Продолжительность : 15 м. 31 с.
Вид битрейта : Постоянный
Битрейт : 384 Кбит/сек
Каналы : 6 каналов
Расположение каналов : Front: L C R, Side: L R, LFE
Частота : 48,0 КГц
Частота кадров : 31,250 кадров/сек (1536 spf)
Битовая глубина : 16 бит
Метод сжатия : С потерями
Размер потока : 42,6 Мбайт (4%)
ServiceKind/String : Complete MainАудио #2
Идентификатор : 189 (0xBD)-129 (0x81)
Формат : AC-3
Формат/Информация : Audio Coding 3
Параметр Endianness формата : Big
Режим смешивания : DVD-Video
Продолжительность : 15 м. 31 с.
Вид битрейта : Постоянный
Битрейт : 384 Кбит/сек
Каналы : 6 каналов
Расположение каналов : Front: L C R, Side: L R, LFE
Частота : 48,0 КГц
Частота кадров : 31,250 кадров/сек (1536 spf)
Битовая глубина : 16 бит
Метод сжатия : С потерями
Размер потока : 42,6 Мбайт (4%)
ServiceKind/String : Complete MainАудио #3
Идентификатор : 189 (0xBD)-138 (0x8A)
Формат : DTS
Формат/Информация : Digital Theater Systems
Режим : 16
Параметр Endianness формата : Big
Режим смешивания : DVD-Video
Продолжительность : 15 м. 31 с.
Вид битрейта : Постоянный
Битрейт : 755 Кбит/сек
Каналы : 6 каналов
Расположение каналов : Front: L C R, Side: L R, LFE
Частота : 48,0 КГц
Частота кадров : 93,750 кадра/сек (512 spf)
Битовая глубина : 24 бит
Метод сжатия : С потерями
Размер потока : 83,8 Мбайт (8%)Текст #1
Идентификатор : 189 (0xBD)-32 (0x20)
Формат : RLE
Формат/Информация : Run-length encoding
Режим смешивания : DVD-VideoТекст #2
Идентификатор : 189 (0xBD)-33 (0x21)
Формат : RLE
Формат/Информация : Run-length encoding
Режим смешивания : DVD-Video

Скриншоты меню

Скриншоты

Скриншоты доп. материалов

0 человек читают эту тему: 0 пользователей, 0 скрытых пользователей, 0 гостей

Показать сообщения:    

Текущее время: 23-Авг 09:18

Часовой пояс: UTC - 1


Вы не можете начинать темы
Вы не можете отвечать на сообщения
Вы не можете редактировать свои сообщения
Вы не можете удалять свои сообщения
Вы не можете голосовать в опросах
Вы не можете прикреплять файлы к сообщениям
Вы не можете скачивать файлы

!ВНИМАНИЕ!
Сайт не предоставляет электронные версии произведений, а занимается лишь коллекционированием и каталогизацией ссылок, присылаемых и публикуемых на форуме нашими читателями. Если вы являетесь правообладателем какого-либо представленного материала и не желаете, чтобы ссылка на него находилась в нашем каталоге, свяжитесь с нами, и мы незамедлительно удалим ее. Файлы для обмена на трекере предоставлены пользователями сайта, и администрация не несет ответственности за их содержание. Просьба не заливать файлы, защищенные авторскими правами, а также файлы нелегального содержания!