Ивановский Торрент трекер
Яндекс.Погода
 

[Quote]
HUNTER

Наму, кит-убийца / Namu, the Killer Whale
Страна: США
Жанр: драма, приключения, семейный
Год выпуска: 1966
Продолжительность: 01:25:21
Перевод: Профессиональный (двухголосый закадровый) НТВ+
Субтитры: нет
Оригинальная аудиодорожка: английский
Режиссер: Ласло Бенедек / Laslo Benedek
В ролях: Роберт Лэнсинг, Джон Андерсон, Робин Маттсон, Ричард Эрдман, Ли Меривезер, Джо Хиггинс, Майкл Ши, Эдвин Рошелль...
Описание: Спасаясь от рыбаков, косатка («кит-убийца») заплывает в бухту, в которой расположена научно-исследовательская станция. Работающий на ней морской биолог д-р Доннер не хочет упустить шанс впервые в мире изучить жизнь этих загадочных морских животных и ограждает выход из бухты сетью. Кит-убийца, получивший имя «Наму», остаётся на станции. Но местные рыбаки не прекращают попыток убить косатку, боясь, что она распугает всю рыбу в округе…

Сэмпл: http://sendfile.su/1394339
Тип релиза: HDTV 1080i
Контейнер: TS
Видео: avc, 1920х1080, 7033 Kbps, 25.000 fps
Аудио: русский, MP2, 2 ch, 192 Kbps, 48.0 KHz
Аудио 2: английский, MP2, 2 ch, 192 Kbps, 48.0 KHz
Rip by

MediaInfo

General
ID : 1 (0x1)
Complete name : W:\Рипер 1\Наму, кит-убийца HDTVRip 1080i (1966).ts
Format : MPEG-TS
File size : 4.65 GiB
Duration : 1h 25mn
Overall bit rate mode : Variable
Overall bit rate : 7 807 Kbps
Video
ID : 1210 (0x4BA)
Menu ID : 142 (0x8E)
Format : AVC
Format/Info : Advanced Video Codec
Format profile : [email protected]
Format settings, CABAC : Yes
Format settings, ReFrames : 4 frames
Format settings, GOP : M=4, N=28
Codec ID : 27
Duration : 1h 25mn
Bit rate : 7 033 Kbps
Width : 1 920 pixels
Height : 1 080 pixels
Display aspect ratio : 16:9
Frame rate : 25.000 fps
Standard : Component
Color space : YUV
Chroma subsampling : 4:2:0
Bit depth : 8 bits
Scan type : Interlaced
Scan order : Top Field First
Bits/(Pixel*Frame) : 0.136
Stream size : 4.19 GiB (90%)
Color primaries : BT.709
Transfer characteristics : BT.709
Matrix coefficients : BT.709
Audio #1
ID : 1211 (0x4BB)
Menu ID : 142 (0x8E)
Format : MPEG Audio
Format version : Version 1
Format profile : Layer 2
Codec ID : 3
Duration : 1h 25mn
Bit rate mode : Constant
Bit rate : 192 Kbps
Channel(s) : 2 channels
Sampling rate : 48.0 KHz
Compression mode : Lossy
Stream size : 117 MiB (2%)
Language : Russian
Audio #2
ID : 1212 (0x4BC)
Menu ID : 142 (0x8E)
Format : MPEG Audio
Format version : Version 1
Format profile : Layer 2
Codec ID : 3
Duration : 1h 25mn
Bit rate mode : Constant
Bit rate : 192 Kbps
Channel(s) : 2 channels
Sampling rate : 48.0 KHz
Compression mode : Lossy
Stream size : 117 MiB (2%)
Language : English

Скриншот c названием фильма

Скриншоты



Display posts:    

Current time is: 14-Jul 09:06

All times are UTC ± 0


You cannot post new topics in this forum
You cannot reply to topics in this forum
You cannot edit your posts in this forum
You cannot delete your posts in this forum
You cannot vote in polls in this forum
You cannot attach files in this forum
You cannot download files in this forum

!ATTENTION!
The site does not give electronic versions of products, and is engaged only in a collecting and cataloguing of the references sent and published at a forum by our readers. If you are the legal owner of any submitted material and do not wish that the reference to it was in our catalogue, contact us and we shall immediately remove her. Files for an exchange on tracker are given by users of a site, and the administration does not bear the responsibility for their maintenance. The request to not fill in the files protected by copyrights, and also files of the illegal maintenance!