Ивановский Торрент трекер
Яндекс.Погода
 

[Quote]
HUNTER

На пятьдесят оттенков темнее / Fifty Shades Darker
Театральная и Расширенная версии / Theatrical & Extended Cut
Страна: США, Китай
Студия: Universal Pictures
Жанр: драма, мелодрама
Год выпуска: 2017
Продолжительность: 01:53:02 + 02:06:09
Перевод: Профессиональный (дублированный)
Субтитры: английские, русские, польские, греческие, эстонские, латышские, литовские, русские (форс.), польские (форс.)
Оригинальная аудиодорожка: английская
Режиссер: Джеймс Фоули / James Foley
В ролях: Дакота Джонсон, Джейми Дорнан, Эрик Джонсон, Элоиза Мамфорд, Белла Хиткот, Рита Ора, Люк Граймс, Виктор Расук, Макс Мартини, Брюс Олтмен
Описание: Пока Кристиан Грей борется со своими внутренними демонами, Анастейша Стил вынуждена противостоять гневу и зависти тех женщин, что были с Кристианом до нее.
Бонусы: Тизер фильма "Пятьдесят оттенков свободы", Удаленные эпизоды, Писать темнее, Темная семья
Меню: есть, статичное, озвученное
Сэмпл
Тип релиза: DVD9
Контейнер: DVD-Video
Видео: PAL 16:9 (720x576(0.484)) MPEG Video, 25,000 кадр/сек, 5019 Кбит/сек
Аудио: English (Dolby AC-3, 6 ch) 384 Кбит/сек, 48.0 КГц
Аудио 2: Russian (Dolby AC-3, 6 ch) 384 Кбит/сек, 48.0 КГц
Аудио 3: Polish (Dolby AC-3, 6 ch) 384 Кбит/сек, 48.0 КГц

DVDInfo

Title: D1
Disk size: 7.19 Gb ( 7 535 538,00 KBytes )
DVD Type: DVD-9
Enabled regions: 1,2,3,4,5,6,7,8
VTS_01:
Title Play Length: 00:00:01
Video: PAL 16:9 (720x576) VBR,Auto Pan&Scan
Audio (8):
Not specified (Dolby AC3, 2 ch)
Not specified (Dolby AC3, 2 ch)
Not specified (Dolby AC3, 2 ch)
Subtitles (12):
Not specified
Not specified
Not specified
Not specified
Not specified
Not specified
Not specified
Not specified
Not specified
Not specified
Not specified
Not specified
VTS_02:
Title Play Length: 00:01:02
Video: PAL 16:9 (720x576) VBR,Auto Letterboxed
Audio (1):
English (Dolby AC3, 2 ch)
Subtitles (3):
English
Polish
Greek
VTS_03:
Title Play Length: 00:01:02
Video: PAL 16:9 (720x576) VBR,Auto Letterboxed
Audio (1):
Russian (Dolby AC3, 2 ch)
Subtitles (0)
VTS_04:
Title Play Length: 00:00:35
Video: PAL 16:9 (720x576) VBR,Auto Letterboxed
Audio (1):
English (Dolby AC3, 2 ch)
Subtitles (4):
English
Russian
Polish
Greek
VTS_05:
Title Play Length: 03:59:09
Video: PAL 16:9 (720x576) VBR,Auto Letterboxed
Audio (3):
English (Dolby AC3, 6 ch)
Russian (Dolby AC3, 6 ch)
Polish (Dolby AC3, 6 ch)
Subtitles (9):
English
Russian
Polish
Greek
Estonian
Latvian
Lithuanian
Russian
Polish
VTS_06:
Title Play Length: 00:14:31
Video: PAL 16:9 (720x576) VBR,Auto Letterboxed
Audio (1):
English (Dolby AC3, 2 ch)
Subtitles (4):
English
Russian
Polish
Greek
VTS_07:
Title Play Length: 00:00:25
Video: PAL 16:9 (720x576) VBR,Auto Letterboxed
Audio (1):
English (Dolby AC3, 6 ch)
Subtitles (0)
VTS_08:
Title Play Length: 00:00:09
Video: PAL 16:9 (720x576) VBR,Auto Letterboxed
Audio (1):
English (Dolby AC3, 6 ch)
Subtitles (0)
VTS_09:
Title Play Length: 00:02:27
Video: PAL 16:9 (720x576) VBR,Auto Letterboxed
Audio (1):
English (Dolby AC3, 6 ch)
Subtitles (4):
English
Russian
Polish
Greek
* Menus Information *
VIDEO_TS Menu
Video:
PAL 16:9 (720x576) VBR
Auto Pan&Scan
Audio (0)
English Language Unit :
Title Menu
VTS_01 Menu
Video:
NTSC 4:3 (720x480) VBR
Auto Pan&Scan, Auto Letterboxed
Audio (0)
English Language Unit :
Root Menu
VTS_02 Menu
Video:
NTSC 4:3 (720x480) VBR
Auto Pan&Scan, Auto Letterboxed
Audio (0)
English Language Unit :
Root Menu
VTS_03 Menu
Video:
NTSC 4:3 (720x480) VBR
Auto Pan&Scan, Auto Letterboxed
Audio (0)
English Language Unit :
Root Menu
VTS_04 Menu
Video:
NTSC 4:3 (720x480) VBR
Auto Pan&Scan, Auto Letterboxed
Audio (0)
English Language Unit :
Root Menu
VTS_05 Menu
Video:
PAL 16:9 (720x576) VBR
Auto Letterboxed
Audio (1):
Not specified (Dolby AC3, 2 ch)
English Language Unit :
Root Menu
Subpicture Menu
Audio Menu
Angle menu
Chapter (PTT) Menu
VTS_06 Menu
Video:
NTSC 4:3 (720x480) VBR
Auto Pan&Scan, Auto Letterboxed
Audio (0)
English Language Unit :
Root Menu
VTS_07 Menu
Video:
NTSC 4:3 (720x480) VBR
Auto Pan&Scan, Auto Letterboxed
Audio (0)
English Language Unit :
Root Menu
VTS_08 Menu
Video:
NTSC 4:3 (720x480) VBR
Auto Pan&Scan, Auto Letterboxed
Audio (0)
English Language Unit :
Root Menu
VTS_09 Menu
Video:
NTSC 4:3 (720x480) VBR
Auto Pan&Scan, Auto Letterboxed
Audio (0)
English Language Unit :
Root Menu

MediaInfo

Общее
Полное имя : FIFTY_SHADES_DARKER\D1\VIDEO_TS\VTS_05_3.VOB
Формат : MPEG-PS
Размер файла : 1024 Мбайт
Продолжительность : 22 м. 44 с.
Режим общего битрейта : Переменный
Общий поток : 6296 Кбит/сек
Видео
Идентификатор : 224 (0xE0)
Формат : MPEG Video
Версия формата : Version 2
Профиль формата : [email protected]
Настройки формата : CustomMatrix / BVOP
Параметр BVOP формата : Да
Параметр матрицы формата : Выборочная
Параметр GOP формата : Variable
Продолжительность : 22 м. 44 с.
Вид битрейта : Переменный
Битрейт : 5019 Кбит/сек
Максимальный битрейт : 9800 Кбит/сек
Ширина : 720 пикселей
Высота : 576 пикселей
Соотношение сторон : 16:9
Частота кадров : 25,000 кадров/сек
Стандарт вещания : Component
Цветовое пространство : YUV
Субдискретизация насыщенности : 4:2:0
Битовая глубина : 8 бит
Тип развёртки : Прогрессивная
Порядок развёртки : Верхнее поле первое
Метод сжатия : С потерями
Бит/(Пиксели*Кадры) : 0.484
Временной код первого кадра : 01:37:37:15
Оригинал временного кода : Group of pictures header
GOP, открыто/закрыто : Открыто
GOP, открыто/закрыто на первом кадре : Закрыто
Размер потока : 816 Мбайт (80%)
Основные цвета : BT.601 PAL
Характеристики трансфера : BT.470 System B, BT.470 System G
Коэффициенты матрицы : BT.470 System B, BT.470 System G
Аудио #1
Идентификатор : 189 (0xBD)-128 (0x80)
Формат : AC-3
Формат/Информация : Audio Coding 3
Режим смешивания : DVD-Video
Продолжительность : 22 м. 44 с.
Вид битрейта : Постоянный
Битрейт : 384 Кбит/сек
Каналы : 6 каналов
Расположение каналов : Front: L C R, Side: L R, LFE
Частота : 48,0 КГц
Частота кадров : 31,250 кадров/сек (1536 SPF)
Битовая глубина : 16 бит
Метод сжатия : С потерями
Задержка видео : -480 мс.
Размер потока : 62,5 Мбайт (6%)
ServiceKind/String : Complete Main
Аудио #2
Идентификатор : 189 (0xBD)-129 (0x81)
Формат : AC-3
Формат/Информация : Audio Coding 3
Режим смешивания : DVD-Video
Продолжительность : 22 м. 44 с.
Вид битрейта : Постоянный
Битрейт : 384 Кбит/сек
Каналы : 6 каналов
Расположение каналов : Front: L C R, Side: L R, LFE
Частота : 48,0 КГц
Частота кадров : 31,250 кадров/сек (1536 SPF)
Битовая глубина : 16 бит
Метод сжатия : С потерями
Задержка видео : -480 мс.
Размер потока : 62,5 Мбайт (6%)
ServiceKind/String : Complete Main
Аудио #3
Идентификатор : 189 (0xBD)-130 (0x82)
Формат : AC-3
Формат/Информация : Audio Coding 3
Режим смешивания : DVD-Video
Продолжительность : 22 м. 44 с.
Вид битрейта : Постоянный
Битрейт : 384 Кбит/сек
Каналы : 6 каналов
Расположение каналов : Front: L C R, Side: L R, LFE
Частота : 48,0 КГц
Частота кадров : 31,250 кадров/сек (1536 SPF)
Битовая глубина : 16 бит
Метод сжатия : С потерями
Задержка видео : -480 мс.
Размер потока : 62,5 Мбайт (6%)
ServiceKind/String : Complete Main
Текст #1
Идентификатор : 189 (0xBD)-32 (0x20)
Формат : RLE
Формат/Информация : Run-length encoding
Режим смешивания : DVD-Video
Задержка видео : 560 мс.
Текст #2
Идентификатор : 189 (0xBD)-33 (0x21)
Формат : RLE
Формат/Информация : Run-length encoding
Режим смешивания : DVD-Video
Задержка видео : 560 мс.
Текст #3
Идентификатор : 189 (0xBD)-34 (0x22)
Формат : RLE
Формат/Информация : Run-length encoding
Режим смешивания : DVD-Video
Задержка видео : 560 мс.
Текст #4
Идентификатор : 189 (0xBD)-35 (0x23)
Формат : RLE
Формат/Информация : Run-length encoding
Режим смешивания : DVD-Video
Задержка видео : 560 мс.
Текст #5
Идентификатор : 189 (0xBD)-36 (0x24)
Формат : RLE
Формат/Информация : Run-length encoding
Режим смешивания : DVD-Video
Задержка видео : 560 мс.
Текст #6
Идентификатор : 189 (0xBD)-37 (0x25)
Формат : RLE
Формат/Информация : Run-length encoding
Режим смешивания : DVD-Video
Задержка видео : 560 мс.
Текст #7
Идентификатор : 189 (0xBD)-38 (0x26)
Формат : RLE
Формат/Информация : Run-length encoding
Режим смешивания : DVD-Video
Задержка видео : 520 мс.
Текст #8
Идентификатор : 189 (0xBD)-39 (0x27)
Формат : RLE
Формат/Информация : Run-length encoding
Режим смешивания : DVD-Video
Задержка видео : 520 мс.
Текст #9
Идентификатор : 189 (0xBD)-40 (0x28)
Формат : RLE
Формат/Информация : Run-length encoding
Режим смешивания : DVD-Video
Задержка видео : 560 мс.
Текст #10
Идентификатор : 189 (0xBD)-41 (0x29)
Формат : RLE
Формат/Информация : Run-length encoding
Режим смешивания : DVD-Video
Задержка видео : 560 мс.
Текст #11
Идентификатор : 189 (0xBD)-42 (0x2A)
Формат : RLE
Формат/Информация : Run-length encoding
Режим смешивания : DVD-Video
Задержка видео : 520 мс.
Текст #12
Идентификатор : 189 (0xBD)-43 (0x2B)
Формат : RLE
Формат/Информация : Run-length encoding
Режим смешивания : DVD-Video
Задержка видео : 520 мс.
Текст #13
Идентификатор : 189 (0xBD)-44 (0x2C)
Формат : RLE
Формат/Информация : Run-length encoding
Режим смешивания : DVD-Video
Задержка видео : 520 мс.
Текст #14
Идентификатор : 189 (0xBD)-45 (0x2D)
Формат : RLE
Формат/Информация : Run-length encoding
Режим смешивания : DVD-Video
Задержка видео : 520 мс.

Скриншоты меню

Скриншоты

Скриншоты доп. материалов


-
На пятьдесят оттенков темнее / Fifty Shades Darker
Бонус - Диск
Субтитры: английские, французские, немецкие, итальянские, испанские, голландские, португальские, русские, чешские, венгерские, польские, арабские, греческие, болгарские, румынские
Оригинальная аудиодорожка: английская
Бонусы: Костюмы для героев, Открытие галереи, Салон "Эсклава", Что скрывают маски, На волосок от трагедии, Празднование, Музыка к фильму
Меню: есть, статичное, озвученное
Тип релиза: DVD5
Контейнер: DVD-Video
Видео: PAL 16:9 (720x576(0.645)) MPEG Video, 25,000 кадр/сек, 6690 Кбит/сек
Аудио: English (Dolby AC-3, 2 ch) 192 Кбит/сек, 48.0 КГц

DVDInfo

Title: D2
Disk size: 1.48 Gb ( 1 557 128,00 KBytes )
DVD Type: DVD-5
Enabled regions: 1,2,3,4,5,6,7,8
VTS_01:
Title Play Length: 00:00:25
Video: PAL 16:9 (720x576) VBR,Auto Letterboxed
Audio (1):
English (Dolby AC3, 6 ch)
Subtitles (0)
VTS_02:
Title Play Length: 00:00:08
Video: PAL 16:9 (720x576) VBR,Auto Letterboxed
Audio (1):
English (Dolby AC3, 6 ch)
Subtitles (0)
VTS_03:
Title Play Length: 00:04:05
Video: PAL 16:9 (720x576) VBR,Auto Pan&Scan
Audio (0)
Subtitles (0)
VTS_04:
Title Play Length: 00:00:00
Video: PAL 4:3 (720x576) VBR
Audio (0)
Subtitles (0)
VTS_05:
Title Play Length: 00:00:00
Video: PAL 4:3 (720x576) VBR
Audio (0)
Subtitles (0)
VTS_06:
Title Play Length: 00:05:51
Video: PAL 16:9 (720x576) VBR,Auto Letterboxed
Audio (1):
English (Dolby AC3, 2 ch)
Subtitles (15):
English
Francais
Deutsch
Italiano
Espanol
Nederlands
Portugues
Russian
Czech(Ceske)
Magyar
Polish
Arabic
Greek
Bulgarian
Romanian
VTS_07:
Title Play Length: 00:05:28
Video: PAL 16:9 (720x576) VBR,Auto Letterboxed
Audio (1):
English (Dolby AC3, 2 ch)
Subtitles (15):
English
Francais
Deutsch
Italiano
Espanol
Nederlands
Portugues
Russian
Czech(Ceske)
Magyar
Polish
Arabic
Greek
Bulgarian
Romanian
VTS_08:
Title Play Length: 00:02:35
Video: PAL 16:9 (720x576) VBR,Auto Letterboxed
Audio (1):
English (Dolby AC3, 2 ch)
Subtitles (15):
English
Francais
Deutsch
Italiano
Espanol
Nederlands
Portugues
Russian
Czech(Ceske)
Magyar
Polish
Arabic
Greek
Bulgarian
Romanian
VTS_09:
Title Play Length: 00:02:55
Video: PAL 16:9 (720x576) VBR,Auto Letterboxed
Audio (1):
English (Dolby AC3, 2 ch)
Subtitles (15):
English
Francais
Deutsch
Italiano
Espanol
Nederlands
Portugues
Russian
Czech(Ceske)
Magyar
Polish
Arabic
Greek
Bulgarian
Romanian
VTS_10:
Title Play Length: 00:03:02
Video: PAL 16:9 (720x576) VBR,Auto Letterboxed
Audio (1):
English (Dolby AC3, 2 ch)
Subtitles (15):
English
Francais
Deutsch
Italiano
Espanol
Nederlands
Portugues
Russian
Czech(Ceske)
Magyar
Polish
Arabic
Greek
Bulgarian
Romanian
VTS_11:
Title Play Length: 00:04:20
Video: PAL 16:9 (720x576) VBR,Auto Letterboxed
Audio (1):
English (Dolby AC3, 2 ch)
Subtitles (15):
English
Francais
Deutsch
Italiano
Espanol
Nederlands
Portugues
Russian
Czech(Ceske)
Magyar
Polish
Arabic
Greek
Bulgarian
Romanian
VTS_12:
Title Play Length: 00:05:31
Video: PAL 16:9 (720x576) VBR,Auto Letterboxed
Audio (1):
English (Dolby AC3, 2 ch)
Subtitles (15):
English
Francais
Deutsch
Italiano
Espanol
Nederlands
Portugues
Russian
Czech(Ceske)
Magyar
Polish
Arabic
Greek
Bulgarian
Romanian
* Menus Information *
VIDEO_TS Menu
Video:
PAL 16:9 (720x576) VBR
Auto Pan&Scan
Audio (0)
English Language Unit :
Title Menu
VTS_01 Menu
Video:
NTSC 4:3 (720x480) VBR
Auto Pan&Scan, Auto Letterboxed
Audio (0)
English Language Unit :
Root Menu
VTS_02 Menu
Video:
NTSC 4:3 (720x480) VBR
Auto Pan&Scan, Auto Letterboxed
Audio (0)
English Language Unit :
Root Menu
VTS_03 Menu
Video:
NTSC 4:3 (720x480) VBR
Auto Pan&Scan, Auto Letterboxed
Audio (0)
English Language Unit :
Root Menu
VTS_04 Menu
Video:
PAL 16:9 (720x576) VBR
Auto Letterboxed
Audio (1):
Not specified (Dolby AC3, 2 ch)
English Language Unit :
Root Menu
Subpicture Menu
Audio Menu
Angle menu
Chapter (PTT) Menu
VTS_05 Menu
Video:
NTSC 4:3 (720x480) VBR
Auto Pan&Scan, Auto Letterboxed
Audio (0)
English Language Unit :
Root Menu
VTS_06 Menu
Video:
NTSC 4:3 (720x480) VBR
Auto Pan&Scan, Auto Letterboxed
Audio (0)
English Language Unit :
Root Menu
VTS_07 Menu
Video:
NTSC 4:3 (720x480) VBR
Auto Pan&Scan, Auto Letterboxed
Audio (0)
English Language Unit :
Root Menu
VTS_08 Menu
Video:
NTSC 4:3 (720x480) VBR
Auto Pan&Scan, Auto Letterboxed
Audio (0)
English Language Unit :
Root Menu
VTS_09 Menu
Video:
NTSC 4:3 (720x480) VBR
Auto Pan&Scan, Auto Letterboxed
Audio (0)
English Language Unit :
Root Menu
VTS_10 Menu
Video:
NTSC 4:3 (720x480) VBR
Auto Pan&Scan, Auto Letterboxed
Audio (0)
English Language Unit :
Root Menu
VTS_11 Menu
Video:
NTSC 4:3 (720x480) VBR
Auto Pan&Scan, Auto Letterboxed
Audio (0)
English Language Unit :
Root Menu
VTS_12 Menu
Video:
NTSC 4:3 (720x480) VBR
Auto Pan&Scan, Auto Letterboxed
Audio (0)
English Language Unit :
Root Menu

MediaInfo

Общее
Полное имя : FIFTY_SHADES_DARKER\D2\VIDEO_TS\VTS_06_1.VOB
Формат : MPEG-PS
Размер файла : 294 Мбайт
Продолжительность : 5 м. 51 с.
Режим общего битрейта : Переменный
Общий поток : 7022 Кбит/сек
Видео
Идентификатор : 224 (0xE0)
Формат : MPEG Video
Версия формата : Version 2
Профиль формата : [email protected]
Настройки формата : CustomMatrix / BVOP
Параметр BVOP формата : Да
Параметр матрицы формата : Выборочная
Параметр GOP формата : Variable
Продолжительность : 89 мс.
Вид битрейта : Переменный
Битрейт : 6690 Кбит/сек
Максимальный битрейт : 9800 Кбит/сек
Ширина : 720 пикселей
Высота : 576 пикселей
Соотношение сторон : 16:9
Частота кадров : 25,000 кадров/сек
Стандарт вещания : PAL
Цветовое пространство : YUV
Субдискретизация насыщенности : 4:2:0
Битовая глубина : 8 бит
Тип развёртки : Прогрессивная
Порядок развёртки : Верхнее поле первое
Метод сжатия : С потерями
Бит/(Пиксели*Кадры) : 0.645
Временной код первого кадра : 00:59:58:24
Оригинал временного кода : Group of pictures header
Размер потока : 65,3 Кбайт (0%)
Аудио
Идентификатор : 189 (0xBD)-128 (0x80)
Формат : AC-3
Формат/Информация : Audio Coding 3
Режим смешивания : DVD-Video
Продолжительность : 5 м. 51 с.
Вид битрейта : Постоянный
Битрейт : 192 Кбит/сек
Каналы : 2 канала
Расположение каналов : Front: L R
Частота : 48,0 КГц
Частота кадров : 31,250 кадров/сек (1536 SPF)
Битовая глубина : 16 бит
Метод сжатия : С потерями
Задержка видео : 40 мс.
Размер потока : 8,04 Мбайт (3%)
ServiceKind/String : Complete Main
Текст #1
Идентификатор : 189 (0xBD)-32 (0x20)
Формат : RLE
Формат/Информация : Run-length encoding
Режим смешивания : DVD-Video
Задержка видео : 1 с. 600 мс.
Текст #2
Идентификатор : 189 (0xBD)-33 (0x21)
Формат : RLE
Формат/Информация : Run-length encoding
Режим смешивания : DVD-Video
Продолжительность : 5 м. 47 с.
Задержка видео : 1 с. 600 мс.
Текст #3
Идентификатор : 189 (0xBD)-34 (0x22)
Формат : RLE
Формат/Информация : Run-length encoding
Режим смешивания : DVD-Video
Продолжительность : 5 м. 47 с.
Задержка видео : 1 с. 600 мс.
Текст #4
Идентификатор : 189 (0xBD)-35 (0x23)
Формат : RLE
Формат/Информация : Run-length encoding
Режим смешивания : DVD-Video
Продолжительность : 5 м. 47 с.
Задержка видео : 1 с. 600 мс.
Текст #5
Идентификатор : 189 (0xBD)-36 (0x24)
Формат : RLE
Формат/Информация : Run-length encoding
Режим смешивания : DVD-Video
Продолжительность : 5 м. 47 с.
Задержка видео : 1 с. 600 мс.
Текст #6
Идентификатор : 189 (0xBD)-37 (0x25)
Формат : RLE
Формат/Информация : Run-length encoding
Режим смешивания : DVD-Video
Продолжительность : 5 м. 47 с.
Задержка видео : 1 с. 600 мс.
Текст #7
Идентификатор : 189 (0xBD)-38 (0x26)
Формат : RLE
Формат/Информация : Run-length encoding
Режим смешивания : DVD-Video
Продолжительность : 5 м. 47 с.
Задержка видео : 1 с. 600 мс.
Текст #8
Идентификатор : 189 (0xBD)-39 (0x27)
Формат : RLE
Формат/Информация : Run-length encoding
Режим смешивания : DVD-Video
Продолжительность : 5 м. 47 с.
Задержка видео : 1 с. 600 мс.
Текст #9
Идентификатор : 189 (0xBD)-40 (0x28)
Формат : RLE
Формат/Информация : Run-length encoding
Режим смешивания : DVD-Video
Продолжительность : 5 м. 47 с.
Задержка видео : 1 с. 600 мс.
Текст #10
Идентификатор : 189 (0xBD)-41 (0x29)
Формат : RLE
Формат/Информация : Run-length encoding
Режим смешивания : DVD-Video
Продолжительность : 5 м. 47 с.
Задержка видео : 1 с. 600 мс.
Текст #11
Идентификатор : 189 (0xBD)-42 (0x2A)
Формат : RLE
Формат/Информация : Run-length encoding
Режим смешивания : DVD-Video
Продолжительность : 5 м. 47 с.
Задержка видео : 1 с. 600 мс.
Текст #12
Идентификатор : 189 (0xBD)-43 (0x2B)
Формат : RLE
Формат/Информация : Run-length encoding
Режим смешивания : DVD-Video
Продолжительность : 5 м. 47 с.
Задержка видео : 1 с. 600 мс.
Текст #13
Идентификатор : 189 (0xBD)-44 (0x2C)
Формат : RLE
Формат/Информация : Run-length encoding
Режим смешивания : DVD-Video
Продолжительность : 5 м. 47 с.
Задержка видео : 1 с. 600 мс.
Текст #14
Идентификатор : 189 (0xBD)-45 (0x2D)
Формат : RLE
Формат/Информация : Run-length encoding
Режим смешивания : DVD-Video
Продолжительность : 5 м. 47 с.
Задержка видео : 1 с. 600 мс.
Текст #15
Идентификатор : 189 (0xBD)-46 (0x2E)
Формат : RLE
Формат/Информация : Run-length encoding
Режим смешивания : DVD-Video
Продолжительность : 5 м. 47 с.
Задержка видео : 1 с. 600 мс.

Скриншоты меню

Скриншоты

-


Display posts:    

Current time is: 13-Jul 11:38

All times are UTC ± 0


You cannot post new topics in this forum
You cannot reply to topics in this forum
You cannot edit your posts in this forum
You cannot delete your posts in this forum
You cannot vote in polls in this forum
You cannot attach files in this forum
You cannot download files in this forum

!ATTENTION!
The site does not give electronic versions of products, and is engaged only in a collecting and cataloguing of the references sent and published at a forum by our readers. If you are the legal owner of any submitted material and do not wish that the reference to it was in our catalogue, contact us and we shall immediately remove her. Files for an exchange on tracker are given by users of a site, and the administration does not bear the responsibility for their maintenance. The request to not fill in the files protected by copyrights, and also files of the illegal maintenance!