Ивановский Торрент трекер
Яндекс.Погода
 

[Quote]
HUNTER

Мы – монстры / Happy Family
Страна: Великобритания, Германия
Жанр: мультфильм, ужасы, комедия, семейный
Год выпуска: 2017
Продолжительность: 01:29:08-Перевод: Профессиональный (дублированный) | iTunes
Русские субтитры: нет
Оригинальная аудиодорожка: нет-Режиссёр: Хольгер Таппе / Holger Tappe-В ролях: Эмили Уотсон, Джейсон Айзекс, Ник Фрост, Джессика Браун-Финдли, Селия Имри, Кэтрин Тейт, Итан Раус, Ивэн Бэйли, Эмма Тейт, Джессика МакДональд-Описание: По воле могущественного Дракулы вся семейка Уишбоун сталкивается с «монстрическими» проблемами: мама превращается в вампира, папа — в Франкенштейна, а их дети — в мумию и оборотня. Теперь они должны сплотиться, чтобы победить повелителя тьмы и снова стать не только людьми, но и дружной семьей.-Качество: WEB-DLRip
Формат: AVI
Видео: 688x288 (2.39:1), 25 fps, XviD build 73 ~1027 kbps avg, 0.21 bit/pixel
Аудио: 48 kHz, MPEG Layer 3, 2 ch, ~128.00 kbps avg-Сэмпл-

MI

Код:Format : AVI
Format/Info : Audio Video Interleave
File size : 743 MiB
Duration : 1 h 29 min
Overall bit rate : 1 166 kb/s
Writing application : VirtualDubMod 1.5.10.3 | www.virtualdub-fr.org || (build 2550/release)
Writing library : VirtualDubMod build 2550/release
Video
ID : 0
Format : MPEG-4 Visual
Format profile : Advanced [email protected]
Format settings : BVOP1
Format settings, BVOP : 1
Format settings, QPel : No
Format settings, GMC : No warppoints
Format settings, Matrix : Default (H.263)
Codec ID : XVID
Codec ID/Hint : XviD
Duration : 1 h 29 min
Bit rate : 1 028 kb/s
Width : 688 pixels
Height : 288 pixels
Display aspect ratio : 2.40:1
Frame rate : 25.000 FPS
Color space : YUV
Chroma subsampling : 4:2:0
Bit depth : 8 bits
Scan type : Progressive
Compression mode : Lossy
Bits/(Pixel*Frame) : 0.208
Stream size : 655 MiB (88%)
Writing library : XviD 73
Audio
ID : 1
Format : MPEG Audio
Format version : Version 1
Format profile : Layer 3
Codec ID : 55
Codec ID/Hint : MP3
Duration : 1 h 29 min
Bit rate mode : Constant
Bit rate : 128 kb/s
Channel(s) : 2 channels
Sampling rate : 48.0 kHz
Frame rate : 41.667 FPS (1152 SPF)
Compression mode : Lossy
Stream size : 81.6 MiB (11%)
Alignment : Aligned on interleaves
Interleave, duration : 40 ms (1.00 video frame)
Interleave, preload duratio : 504 ms
Writing library : LAME3.99r
Encoding settings : -m s -V 4 -q 2 -lowpass 17 -b 128

Скриншоты



Display posts:    

Current time is: 04-Jul 19:18

All times are UTC ± 0


You cannot post new topics in this forum
You cannot reply to topics in this forum
You cannot edit your posts in this forum
You cannot delete your posts in this forum
You cannot vote in polls in this forum
You cannot attach files in this forum
You cannot download files in this forum

!ATTENTION!
The site does not give electronic versions of products, and is engaged only in a collecting and cataloguing of the references sent and published at a forum by our readers. If you are the legal owner of any submitted material and do not wish that the reference to it was in our catalogue, contact us and we shall immediately remove her. Files for an exchange on tracker are given by users of a site, and the administration does not bear the responsibility for their maintenance. The request to not fill in the files protected by copyrights, and also files of the illegal maintenance!