Ивановский Торрент трекер
Яндекс.Погода
 

[Quote]
HUNTER

Мы – монстры / Happy Family
Страна: Великобритания, Германия
Жанр: мультфильм, ужасы, комедия, семейный
Год выпуска: 2017
Продолжительность: 01:29:08-Перевод: Профессиональный (дублированный) | iTunes
Русские субтитры: нет
Оригинальная аудиодорожка: нет-Режиссёр: Хольгер Таппе / Holger Tappe-В ролях: Эмили Уотсон, Джейсон Айзекс, Ник Фрост, Джессика Браун-Финдли, Селия Имри, Кэтрин Тейт, Итан Раус, Ивэн Бэйли, Эмма Тейт, Джессика МакДональд-Описание: По воле могущественного Дракулы вся семейка Уишбоун сталкивается с «монстрическими» проблемами: мама превращается в вампира, папа — в Франкенштейна, а их дети — в мумию и оборотня. Теперь они должны сплотиться, чтобы победить повелителя тьмы и снова стать не только людьми, но и дружной семьей.-Качество: WEB-DLRip
Формат: AVI
Видео: 720x304 (2.37:1), 25 fps, XviD build 73 ~1944 kbps avg, 0.35 bit/pixel
Аудио: 48 kHz, AC3 Dolby Digital, 3/2 (L,C,R,l,r) + LFE ch, ~384 kbps-Сэмпл-

MI

Код:Format : AVI
Format/Info : Audio Video Interleave
File size : 1.46 GiB
Duration : 1 h 29 min
Overall bit rate : 2 339 kb/s
Writing application : VirtualDubMod 1.5.10.3 | www.virtualdub-fr.org || (build 2550/release)
Writing library : VirtualDubMod build 2550/release
Video
ID : 0
Format : MPEG-4 Visual
Format profile : Advanced [email protected]
Format settings : BVOP1 / Custom Matrix
Format settings, BVOP : 1
Format settings, QPel : No
Format settings, GMC : No warppoints
Format settings, Matrix : Custom
Codec ID : XVID
Codec ID/Hint : XviD
Duration : 1 h 29 min
Bit rate : 1 945 kb/s
Width : 720 pixels
Height : 304 pixels
Display aspect ratio : 2.35:1
Frame rate : 25.000 FPS
Color space : YUV
Chroma subsampling : 4:2:0
Bit depth : 8 bits
Scan type : Progressive
Compression mode : Lossy
Bits/(Pixel*Frame) : 0.355
Stream size : 1.21 GiB (83%)
Writing library : XviD 73
Audio
ID : 1
Format : AC-3
Format/Info : Audio Coding 3
Codec ID : 2000
Duration : 1 h 29 min
Bit rate mode : Constant
Bit rate : 384 kb/s
Channel(s) : 6 channels
Channel positions : Front: L C R, Side: L R, LFE
Sampling rate : 48.0 kHz
Frame rate : 31.250 FPS (1536 SPF)
Bit depth : 16 bits
Compression mode : Lossy
Stream size : 245 MiB (16%)
Alignment : Split accross interleaves
Interleave, duration : 40 ms (1.00 video frame)
Interleave, preload duratio : 500 ms
Service kind : Complete Main

Скриншоты



Display posts:    

Current time is: 09-Jul 12:19

All times are UTC ± 0


You cannot post new topics in this forum
You cannot reply to topics in this forum
You cannot edit your posts in this forum
You cannot delete your posts in this forum
You cannot vote in polls in this forum
You cannot attach files in this forum
You cannot download files in this forum

!ATTENTION!
The site does not give electronic versions of products, and is engaged only in a collecting and cataloguing of the references sent and published at a forum by our readers. If you are the legal owner of any submitted material and do not wish that the reference to it was in our catalogue, contact us and we shall immediately remove her. Files for an exchange on tracker are given by users of a site, and the administration does not bear the responsibility for their maintenance. The request to not fill in the files protected by copyrights, and also files of the illegal maintenance!