Ивановский Торрент трекер
Яндекс.Погода
 

[Quote]
HUNTER

Мы – монстры / Happy Family
Страна: Великобритания, Германия
Жанр: мультфильм, ужасы, комедия, семейный
Продолжительность: 01:29:08
Год выпуска: 2017
Перевод: Профессиональный (дублированный) (iTunes)
Русские субтитры: нет
Режиссёр: Хольгер Таппе / Holger Tappe
Роли озвучивали: Уилл Арнетт, Кэтрин Хайгл, Майя Рудольф, Джеки Чан, Изабела Монер, Петер Стормаре, Бобби Каннавале, Бобби Мойнахан, Джефф Данэм, Габриэль Иглесиас
Описание: По воле могущественного Дракулы вся семейка Уишбоун сталкивается с «монстрическими» проблемами: мама превращается в вампира, папа — в Франкенштейна, а их дети — в мумию и оборотня. Теперь они должны сплотиться, чтобы победить повелителя тьмы и снова стать не только людьми, но и дружной семьей.
IMDb | Кинопоиск | Скачать Сэмпл
Качество: WEB-DL 720p
Формат: MKV
Видео кодек: AVC
Аудио кодек: AC3
Видео: 960x534, 25 fps, ~3982 kbps avg, 0.311 bit/pixel
Аудио Русский: 48 kHz, AC3 Dolby Digital, 3/2 (L,C,R,l,r) + LFE ch, ~384 kbps avg
Аудио 2 Украинский: 48 kHz, AC3 Dolby Digital, 3/2 (L,C,R,l,r) + LFE ch, ~384 kbps avg
Дополнительно: Сохранены оригинальные чаптеры

Подробные технические данные

Код:Формат : Matroska
Версия формата : Version 4 / Version 2
Размер файла : 2,96 Гбайт
Продолжительность : 1 ч. 29 м.
Общий поток : 4752 Кбит/сек
Название фильма : Мы – монстры / Happy Family (2017) WEB-DL 720p -BLUEBIRD
Дата кодирования : UTC 2018-02-05 20:05:24
Программа кодирования : mkvmerge v19.0.0 ('Brave Captain') 64-bit
Библиотека кодирования : libebml v1.3.5 + libmatroska v1.4.8
Обложка : Yes
Attachments : cover_Eng.jpg
Видео
Идентификатор : 1
Формат : AVC
Формат/Информация : Advanced Video Codec
Профиль формата : [email protected]
Настройки формата : 2 Ref Frames
Параметр CABAC формата : Нет
Параметр RefFrames формата : 2 кадра
Идентификатор кодека : V_MPEG4/ISO/AVC
Продолжительность : 1 ч. 29 м.
Битрейт : 3982 Кбит/сек
Ширина : 960 пикселей
Высота : 534 пикселя
Соотношение сторон : 2,40:1
Режим частоты кадров : Постоянный
Частота кадров : 25,000 кадров/сек
Цветовое пространство : YUV
Субдискретизация насыщенности : 4:2:0
Битовая глубина : 8 бит
Тип развёртки : Прогрессивная
Бит/(Пиксели*Кадры) : 0.311
Размер потока : 2,48 Гбайт (84%)
Заголовок : Happy Family (2017) WEB-DL 720p
Язык : English
Default : Да
Forced : Нет
Цветовой диапазон : Limited
Основные цвета : BT.709
Характеристики трансфера : BT.709
Коэффициенты матрицы : BT.709
Аудио #1
Идентификатор : 2
Формат : AC-3
Формат/Информация : Audio Coding 3
Идентификатор кодека : A_AC3
Продолжительность : 1 ч. 29 м.
Вид битрейта : Постоянный
Битрейт : 384 Кбит/сек
Каналы : 6 каналов
Расположение каналов : Front: L C R, Side: L R, LFE
Частота : 48,0 КГц
Частота кадров : 31,250 кадров/сек (1536 SPF)
Битовая глубина : 16 бит
Метод сжатия : С потерями
Размер потока : 245 Мбайт (8%)
Заголовок : iTunes
Язык : Russian
ServiceKind/String : Complete Main
Default : Да
Forced : Нет
Аудио #2
Идентификатор : 3
Формат : AC-3
Формат/Информация : Audio Coding 3
Идентификатор кодека : A_AC3
Продолжительность : 1 ч. 29 м.
Вид битрейта : Постоянный
Битрейт : 384 Кбит/сек
Каналы : 6 каналов
Расположение каналов : Front: L C R, Side: L R, LFE
Частота : 48,0 КГц
Частота кадров : 31,250 кадров/сек (1536 SPF)
Битовая глубина : 16 бит
Метод сжатия : С потерями
Размер потока : 245 Мбайт (8%)
Заголовок : iTunes
Язык : Ukrainian
ServiceKind/String : Complete Main
Default : Нет
Forced : Нет
Меню
00:00:00.000 : en:01
00:07:41.360 : en:02
00:15:28.440 : en:03
00:23:59.480 : en:04
00:32:03.960 : en:05
00:38:30.640 : en:06
00:45:35.840 : en:07
00:53:00.880 : en:08
01:00:16.400 : en:09
01:07:58.120 : en:10
01:15:30.960 : en:11
01:23:17.960 : en:12

Скриншоты



Display posts:    

Current time is: 04-Jul 18:34

All times are UTC ± 0


You cannot post new topics in this forum
You cannot reply to topics in this forum
You cannot edit your posts in this forum
You cannot delete your posts in this forum
You cannot vote in polls in this forum
You cannot attach files in this forum
You cannot download files in this forum

!ATTENTION!
The site does not give electronic versions of products, and is engaged only in a collecting and cataloguing of the references sent and published at a forum by our readers. If you are the legal owner of any submitted material and do not wish that the reference to it was in our catalogue, contact us and we shall immediately remove her. Files for an exchange on tracker are given by users of a site, and the administration does not bear the responsibility for their maintenance. The request to not fill in the files protected by copyrights, and also files of the illegal maintenance!