Ивановский Торрент трекер
Яндекс.Погода
 

[Quote]
HUNTER

My Little Pony в кино / My Little Pony: The Movie Страна: Канада, США
Жанр: Мультфильм, мюзикл, фэнтези, комедия, приключения, семейный
Продолжительность: 01:39:15
Год выпуска: 2017
Перевод 1: Профессиональный (дублированный) (CineLab SoundMix) (по заказу Централ Партнершип)
Перевод 2: Одноголосый закадровый (ALEKS KV)
Перевод 3: Одноголосый закадровый (Pony_Stark)
Перевод 4: Профессиональный (дублированный) (Pie Post Production) (украинский)
Перевод 5: Профессиональный (многоголосый закадровый) (Так Треба Продакшн) (украинский)
Русские субтитры: есть
Режиссер: Джейсон Тиссен / Jayson Thiessen
Роли озвучивали: Тара Стронг, Эшли Болл, Андреа Либман, Табита Сен-Жермен, Кэти Уэслак, Эмили Блант, Кристин Ченоуэт, Лив Шрайбер, Майкл Пенья, Сиа и другие
Описание: Шестерка любимых героев - Эпплджек, Сумеречная Искорка, Флаттершай, Пинки Пай, Рарити и Радуга Дэш - теперь на большом экране! Король Шторм хочет лишить пони магии и захватывает Кантерлот. Под угрозой будущее всей Эквестрии! Чтобы остановить злодея, пони покидают родные края и отправляются в путешествие, полное чудес и опасностей. Им предстоит покорить волшебные горы, погрузиться в подводные миры и даже оказаться на летучем пиратском корабле!
Предыдущие и альтернативные раздачи | Remux | 1080p | 720p | Avi | More
Рейтинг:
Качество: BDRemux 1080p (EPSiLON)
Формат: MKV
Видео: AVC, 1920x1080 (16:9), 23.976 fps, ~34,8 mbps
Аудио 1 Rus: AC3, 48 kHz, 6 ch, 384 kbps (CineLab SoundMix) (iTunes)
Аудио 2 Rus: DTS-HD MA 5.1, 48 kHz, 6 ch, ~3497 kbps, 24-bit (DTS Core: 5.1, 48 kHz, 1509 kbps, 24-bit) (ALEKS KV)
Аудио 3 Rus: AC3, 48 kHz, 6 ch, 640 kbps (Pony_Stark)
Аудио 4 Ukr: AC3, 48 kHz, 2 ch, 192 kbps (Pie Post Production)
Аудио 5 Ukr: AC3, 48 kHz, 2 ch, 192 kbps (Так Треба Продакшн)
Аудио 6 Eng: DTS-HD MA 5.1, 48 kHz, 6 ch, ~3733 kbps, 24-bit (DTS Core: 5.1, 48 kHz, 768 kbps, 24-bit) (Original)
Аудио 7 Eng: AC3, 48 kHz, 2 ch, 448 kbps (Audio description)
Субтитры 1 Rus: (Anon2Anon)
Субтитры 2 Rus: (TheDoctor Team)
Субтитры 3 Rus: (Anatoly136UA)
Субтитры 4 Rus: (Anatoly136UA) (песни)
Субтитры 5 Rus: (Megogo) (srt)
Субтитры 6 Ukr: (Anatoly136UA)
Субтитры 7 Ukr: (Anatoly136UA) (песни)
Субтитры 8 Eng: (Anon2Anon)
Субтитры 9 Eng: (Speech) (srt)
Субтитры 10 Eng: (SDH) (srt)
Субтитры 11 Eng: (PGS) (sup)

Скриншоты

Дополнительная информация

В этой раздаче находится ремукс с образа лицензионного диска BluRay с шестиканальным официальным дубляжом из iTunes, видеоряд не локализован. Дополнительные синхронизированные любительские озвучки и субтитры находятся в специальной отдельной раздаче. Благодарность всем авторам за предоставленные озвучки и субтитры.
Внимание, данная раздача содержит эксклюзивный контент от M-KV2501. Использовать контент без баннера группы: и указания первоначального источника - ЗАПРЕЩЕНО! Уважайте чужой труд!

Подробные технические данные

Общее
Уникальный идентификатор : 277823041163095250262785718082763774757 (0xD102C57BE40A26C2987EB47860545B25)
Полное имя : D:\Video\Mults\my.little.pony.the.movie.2017.bdremux.1080p.mkv
Формат : Matroska
Версия формата : Version 4 / Version 2
Размер файла : 30,4 Гбайт
Продолжительность : 1 ч. 39 м.
Режим общего битрейта : Переменный
Общий поток : 43,9 Мбит/сек
Дата кодирования : UTC 2018-05-09 06:07:27
Программа кодирования : mkvmerge v23.0.0 ('The Bride Said No') 64-bit
Библиотека кодирования : libebml v1.3.6 + libmatroska v1.4.9
Видео
Идентификатор : 1
Формат : AVC
Формат/Информация : Advanced Video Codec
Профиль формата : [email protected]
Настройки формата : CABAC / 4 Ref Frames
Параметр CABAC формата : Да
Параметр RefFrames формата : 4 кадра
Идентификатор кодека : V_MPEG4/ISO/AVC
Продолжительность : 1 ч. 39 м.
Вид битрейта : Переменный
Битрейт : 34,8 Мбит/сек
Максимальный битрейт : 37,0 Мбит/сек
Ширина : 1920 пикселей
Высота : 1080 пикселей
Соотношение сторон : 16:9
Режим частоты кадров : Постоянный
Частота кадров : 23,976 (24000/1001) кадра/сек
Цветовое пространство : YUV
Субдискретизация насыщенности : 4:2:0
Битовая глубина : 8 бит
Тип развёртки : Прогрессивная
Бит/(Пиксели*Кадры) : 0.700
Размер потока : 24,1 Гбайт (79%)
Язык : English
Default : Да
Forced : Нет
Аудио #1
Идентификатор : 2
Формат : AC-3
Формат/Информация : Audio Coding 3
Параметр Endianness формата : Big
Идентификатор кодека : A_AC3
Продолжительность : 1 ч. 39 м.
Вид битрейта : Постоянный
Битрейт : 384 Кбит/сек
Каналы : 6 каналов
Расположение каналов : Front: L C R, Side: L R, LFE
Частота : 48,0 КГц
Частота кадров : 31,250 кадров/сек (1536 SPF)
Битовая глубина : 16 бит
Метод сжатия : С потерями
Размер потока : 273 Мбайт (1%)
Заголовок : CineLab SoundMix
Язык : Russian
ServiceKind/String : Complete Main
Default : Да
Forced : Нет
Аудио #2
Идентификатор : 3
Формат : DTS
Формат/Информация : Digital Theater Systems
Профиль формата : MA / Core
Режим : 16
Параметр Endianness формата : Big
Идентификатор кодека : A_DTS
Продолжительность : 1 ч. 39 м.
Вид битрейта : Переменный / Постоянный
Битрейт : 3497 Кбит/сек / 1509 Кбит/сек
Каналы : 6 каналов
Расположение каналов : Front: L C R, Side: L R, LFE
Частота : 48,0 КГц
Частота кадров : 93,750 кадра/сек (512 SPF)
Битовая глубина : 24 бит
Метод сжатия : Без потерь / Lossy
Размер потока : 2,42 Гбайт (8%)
Заголовок : ALEKS KV
Язык : Russian
Default : Нет
Forced : Нет
Аудио #3
Идентификатор : 4
Формат : AC-3
Формат/Информация : Audio Coding 3
Параметр Endianness формата : Big
Идентификатор кодека : A_AC3
Продолжительность : 1 ч. 39 м.
Вид битрейта : Постоянный
Битрейт : 640 Кбит/сек
Каналы : 6 каналов
Расположение каналов : Front: L C R, Side: L R, LFE
Частота : 48,0 КГц
Частота кадров : 31,250 кадров/сек (1536 SPF)
Битовая глубина : 16 бит
Метод сжатия : С потерями
Размер потока : 454 Мбайт (1%)
Заголовок : Pony_Stark
Язык : Russian
ServiceKind/String : Complete Main
Default : Нет
Forced : Нет
Аудио #4
Идентификатор : 5
Формат : AC-3
Формат/Информация : Audio Coding 3
Параметр Endianness формата : Big
Идентификатор кодека : A_AC3
Продолжительность : 1 ч. 39 м.
Вид битрейта : Постоянный
Битрейт : 192 Кбит/сек
Каналы : 2 канала
Расположение каналов : Front: L R
Частота : 48,0 КГц
Частота кадров : 31,250 кадров/сек (1536 SPF)
Битовая глубина : 16 бит
Метод сжатия : С потерями
Размер потока : 136 Мбайт (0%)
Заголовок : Pie Post Production
Язык : Ukrainian
ServiceKind/String : Complete Main
Default : Нет
Forced : Нет
Аудио #5
Идентификатор : 6
Формат : AC-3
Формат/Информация : Audio Coding 3
Параметр Endianness формата : Big
Идентификатор кодека : A_AC3
Продолжительность : 1 ч. 39 м.
Вид битрейта : Постоянный
Битрейт : 192 Кбит/сек
Каналы : 2 канала
Расположение каналов : Front: L R
Частота : 48,0 КГц
Частота кадров : 31,250 кадров/сек (1536 SPF)
Битовая глубина : 16 бит
Метод сжатия : С потерями
Размер потока : 136 Мбайт (0%)
Заголовок : Так Треба Продакшн
Язык : Ukrainian
ServiceKind/String : Complete Main
Default : Нет
Forced : Нет
Аудио #6
Идентификатор : 7
Формат : DTS
Формат/Информация : Digital Theater Systems
Профиль формата : MA / Core
Режим : 16
Параметр Endianness формата : Big
Идентификатор кодека : A_DTS
Продолжительность : 1 ч. 39 м.
Вид битрейта : Переменный / Постоянный
Битрейт : 3733 Кбит/сек / 768 Кбит/сек
Каналы : 6 каналов
Расположение каналов : Front: L C R, Side: L R, LFE
Частота : 48,0 КГц
Частота кадров : 93,750 кадра/сек (512 SPF)
Битовая глубина : 24 бит
Метод сжатия : Без потерь / Lossy
Размер потока : 2,59 Гбайт (8%)
Заголовок : Original
Язык : English
Default : Нет
Forced : Нет
Аудио #7
Идентификатор : 8
Формат : AC-3
Формат/Информация : Audio Coding 3
Параметр Endianness формата : Big
Идентификатор кодека : A_AC3
Продолжительность : 1 ч. 39 м.
Вид битрейта : Постоянный
Битрейт : 448 Кбит/сек
Каналы : 2 канала
Расположение каналов : Front: L R
Частота : 48,0 КГц
Частота кадров : 31,250 кадров/сек (1536 SPF)
Битовая глубина : 16 бит
Метод сжатия : С потерями
Размер потока : 318 Мбайт (1%)
Заголовок : Audio description
Язык : English
ServiceKind/String : Complete Main
Default : Нет
Forced : Нет
Текст #1
Идентификатор : 9
Формат : ASS
Идентификатор кодека : S_TEXT/ASS
Идентификатор кодека/Информация : Advanced Sub Station Alpha
Продолжительность : 1 ч. 34 м.
Битрейт : 145 бит/сек
ElementCount : 1458
Метод сжатия : Без потерь
Размер потока : 100 Кбайт (0%)
Заголовок : Anon2Anon
Язык : Russian
Default : Нет
Forced : Нет
Текст #2
Идентификатор : 10
Формат : ASS
Идентификатор кодека : S_TEXT/ASS
Идентификатор кодека/Информация : Advanced Sub Station Alpha
Продолжительность : 1 ч. 32 м.
Битрейт : 158 бит/сек
ElementCount : 1344
Метод сжатия : Без потерь
Размер потока : 108 Кбайт (0%)
Заголовок : TheDoctor Team
Язык : Russian
Default : Нет
Forced : Нет
Текст #3
Идентификатор : 11
Формат : ASS
Идентификатор кодека : S_TEXT/ASS
Идентификатор кодека/Информация : Advanced Sub Station Alpha
Продолжительность : 1 ч. 34 м.
Битрейт : 170 бит/сек
ElementCount : 936
Метод сжатия : Без потерь
Размер потока : 117 Кбайт (0%)
Заголовок : Anatoly136UA
Язык : Russian
Default : Нет
Forced : Нет
Текст #4
Идентификатор : 12
Формат : ASS
Идентификатор кодека : S_TEXT/ASS
Идентификатор кодека/Информация : Advanced Sub Station Alpha
Продолжительность : 1 ч. 34 м.
Битрейт : 41 бит/сек
ElementCount : 178
Метод сжатия : Без потерь
Размер потока : 28,5 Кбайт (0%)
Заголовок : Anatoly136UA (песни)
Язык : Russian
Default : Нет
Forced : Нет
Текст #5
Идентификатор : 13
Формат : UTF-8
Идентификатор кодека : S_TEXT/UTF8
Идентификатор кодека/Информация : UTF-8 Plain Text
Продолжительность : 1 ч. 31 м.
Битрейт : 98 бит/сек
ElementCount : 1339
Размер потока : 65,8 Кбайт (0%)
Заголовок : Megogo
Язык : Russian
Default : Нет
Forced : Нет
Текст #6
Идентификатор : 14
Формат : ASS
Идентификатор кодека : S_TEXT/ASS
Идентификатор кодека/Информация : Advanced Sub Station Alpha
Продолжительность : 1 ч. 34 м.
Битрейт : 161 бит/сек
ElementCount : 1099
Метод сжатия : Без потерь
Размер потока : 111 Кбайт (0%)
Заголовок : Anatoly136UA
Язык : Ukrainian
Default : Нет
Forced : Нет
Текст #7
Идентификатор : 15
Формат : ASS
Идентификатор кодека : S_TEXT/ASS
Идентификатор кодека/Информация : Advanced Sub Station Alpha
Продолжительность : 1 ч. 34 м.
Битрейт : 40 бит/сек
ElementCount : 223
Метод сжатия : Без потерь
Размер потока : 27,6 Кбайт (0%)
Заголовок : Anatoly136UA (песни)
Язык : Ukrainian
Default : Нет
Forced : Нет
Текст #8
Идентификатор : 16
Формат : ASS
Идентификатор кодека : S_TEXT/ASS
Идентификатор кодека/Информация : Advanced Sub Station Alpha
Продолжительность : 1 ч. 34 м.
Битрейт : 105 бит/сек
ElementCount : 1438
Метод сжатия : Без потерь
Размер потока : 73,4 Кбайт (0%)
Заголовок : Anon2Anon
Язык : English
Default : Нет
Forced : Нет
Текст #9
Идентификатор : 17
Формат : UTF-8
Идентификатор кодека : S_TEXT/UTF8
Идентификатор кодека/Информация : UTF-8 Plain Text
Продолжительность : 1 ч. 34 м.
Битрейт : 61 бит/сек
ElementCount : 1353
Размер потока : 42,7 Кбайт (0%)
Заголовок : Speech
Язык : English
Default : Нет
Forced : Нет
Текст #10
Идентификатор : 18
Формат : UTF-8
Идентификатор кодека : S_TEXT/UTF8
Идентификатор кодека/Информация : UTF-8 Plain Text
Продолжительность : 1 ч. 38 м.
Битрейт : 66 бит/сек
ElementCount : 1598
Размер потока : 47,9 Кбайт (0%)
Заголовок : SDH
Язык : English
Default : Нет
Forced : Нет
Текст #11
Идентификатор : 19
Формат : PGS
Режим смешивания : zlib
Идентификатор кодека : S_HDMV/PGS
Идентификатор кодека/Информация : Picture based subtitle format used on BDs/HD-DVDs
Продолжительность : 1 ч. 38 м.
Битрейт : 45,9 Кбит/сек
ElementCount : 3238
Размер потока : 32,2 Мбайт (0%)
Заголовок : PGS
Язык : English
Default : Нет
Forced : Нет
Меню
00:00:00.000 : en:Chapter 1
00:05:23.073 : en:Chapter 2
00:12:03.139 : en:Chapter 3
00:17:55.533 : en:Chapter 4
00:22:59.044 : en:Chapter 5
00:30:24.865 : en:Chapter 6
00:35:30.336 : en:Chapter 7
00:41:33.866 : en:Chapter 8
00:46:23.823 : en:Chapter 9
00:50:10.841 : en:Chapter 10
01:01:11.543 : en:Chapter 11
01:04:23.276 : en:Chapter 12
01:09:01.137 : en:Chapter 13
01:15:48.210 : en:Chapter 14
01:20:24.486 : en:Chapter 15
01:27:24.072 : en:Chapter 16


Display posts:    

Current time is: 07-Jul 06:18

All times are UTC ± 0


You cannot post new topics in this forum
You cannot reply to topics in this forum
You cannot edit your posts in this forum
You cannot delete your posts in this forum
You cannot vote in polls in this forum
You cannot attach files in this forum
You cannot download files in this forum

!ATTENTION!
The site does not give electronic versions of products, and is engaged only in a collecting and cataloguing of the references sent and published at a forum by our readers. If you are the legal owner of any submitted material and do not wish that the reference to it was in our catalogue, contact us and we shall immediately remove her. Files for an exchange on tracker are given by users of a site, and the administration does not bear the responsibility for their maintenance. The request to not fill in the files protected by copyrights, and also files of the illegal maintenance!