Важное объявление!
У Нас Все раздачи мультитрекерные, при нуле пиров в релизах, можете смело вставать на закачку!
 
Автор Сообщение

HUNTER

Стаж:
4 года 4 месяца
Сообщений:
56722

Репутация: 101

[+] [-]
Вне форума [Профиль] [ЛС]

Monument by Dimitri Arleri
Страна: USA
Тематика: cardistry
Тип раздаваемого материала: Видеоурок
Продолжительность: Более 2 часов
Год выпуска: 2013
Язык: Английский
Перевод: Отсутствует
Описание: Monument by Dimitri Arleri это 16 уникальных флоришей + бонусный контент
Качество: HDRip
Формат: MP4
Видео кодек: H.264
Аудио кодек: AAC
Видео: mp42 ; 1280x720 ; 16:9 ; 3994kbps ; 23 fps
Аудио: aac; 31kbps ; 48.0 kHz ; 2ch

Скриншоты

MediaInfo

Общее
Полное имя : C:\Users\luka\Desktop\Monument-Dimitri-Arleri\720 ProRes Feature\01 Axis.mp4
Формат : MPEG-4
Профиль формата : Base Media / Version 2
Идентификатор кодека : mp42
Размер файла : 119 Мбайт
Продолжительность : 3 м. 52 с.
Режим общего битрейта : Переменный
Общий поток : 4315 Кбит/сек
Дата кодирования : UTC 2013-08-08 17:49:34
Дата пометки : UTC 2013-08-08 17:49:43
©TIM : 00:00:00:00
©TSC : 24000
©TSZ : 1001
Видео
Идентификатор : 1
Формат : AVC
Формат/Информация : Advanced Video Codec
Профиль формата : High@L3.1
Параметр CABAC формата : Да
Параметр ReFrames формата : 3 кадра
Идентификатор кодека : avc1
Идентификатор кодека/Информация : Advanced Video Coding
Продолжительность : 3 м. 52 с.
Продолжительность оригинала : 3 м. 52 с.
Битрейт : 3994 Кбит/сек
Ширина : 1280 пикселей
Высота : 720 пикселей
Соотношение сторон : 16:9
Режим частоты кадров : Переменный
Частота кадров : 23,976 кадра/сек
Минимальная частота кадров : 23,976 кадра/сек
Максимальная частота кадров : 24,000 кадра/сек
Стандарт вещания : NTSC
Цветовое пространство : YUV
Субдискретизация насыщенности : 4:2:0
Битовая глубина : 8 бит
Тип развёртки : Прогрессивная
Бит/(Пиксели*Кадры) : 0.181
Размер потока : 110 Мбайт (93%)
Размер потока оригинала : 110 Мбайт (93%)
Язык : English
Дата кодирования : UTC 2013-08-08 17:49:34
Дата пометки : UTC 2013-08-08 17:49:34
Основные цвета : BT.709
Характеристики трансфера : BT.709
Коэффициенты матрицы : BT.709
mdhd_Duration : 232065
Аудио
Идентификатор : 2
Формат : AAC
Формат/Информация : Advanced Audio Codec
Профиль формата : LC
Идентификатор кодека : 40
Продолжительность : 3 м. 52 с.
Продолжительность оригинала : 3 м. 52 с.
Вид битрейта : Переменный
Битрейт : 317 Кбит/сек
Максимальный битрейт : 457 Кбит/сек
Каналы : 2 канала
Расположение каналов : Front: L R
Частота : 48,0 КГц
Метод сжатия : С потерями
Размер потока : 8,78 Мбайт (7%)
Размер потока оригинала : 8,78 Мбайт (7%)
Язык : English
Дата кодирования : UTC 2013-08-08 17:49:34
Дата пометки : UTC 2013-08-08 17:49:34
mdhd_Duration : 232107
Общее
Полное имя : C:\Users\luka\Desktop\Monument-Dimitri-Arleri\720 ProRes Feature\02 Mango.mp4
Формат : MPEG-4
Профиль формата : Base Media / Version 2
Идентификатор кодека : mp42
Размер файла : 240 Мбайт
Продолжительность : 7 м. 46 с.
Режим общего битрейта : Переменный
Общий поток : 4317 Кбит/сек
Дата кодирования : UTC 2013-08-08 18:07:53
Дата пометки : UTC 2013-08-08 18:08:13
©TIM : 00:00:00:00
©TSC : 24000
©TSZ : 1001
Видео
Идентификатор : 1
Формат : AVC
Формат/Информация : Advanced Video Codec
Профиль формата : High@L3.1
Параметр CABAC формата : Да
Параметр ReFrames формата : 3 кадра
Идентификатор кодека : avc1
Идентификатор кодека/Информация : Advanced Video Coding
Продолжительность : 7 м. 46 с.
Продолжительность оригинала : 7 м. 46 с.
Битрейт : 3996 Кбит/сек
Ширина : 1280 пикселей
Высота : 720 пикселей
Соотношение сторон : 16:9
Режим частоты кадров : Переменный
Частота кадров : 23,976 кадра/сек
Минимальная частота кадров : 23,976 кадра/сек
Максимальная частота кадров : 24,000 кадра/сек
Стандарт вещания : NTSC
Цветовое пространство : YUV
Субдискретизация насыщенности : 4:2:0
Битовая глубина : 8 бит
Тип развёртки : Прогрессивная
Бит/(Пиксели*Кадры) : 0.181
Размер потока : 222 Мбайт (93%)
Размер потока оригинала : 222 Мбайт (93%)
Язык : English
Дата кодирования : UTC 2013-08-08 18:07:53
Дата пометки : UTC 2013-08-08 18:07:53
Основные цвета : BT.709
Характеристики трансфера : BT.709
Коэффициенты матрицы : BT.709
mdhd_Duration : 466216
Аудио
Идентификатор : 2
Формат : AAC
Формат/Информация : Advanced Audio Codec
Профиль формата : LC
Идентификатор кодека : 40
Продолжительность : 7 м. 46 с.
Продолжительность оригинала : 7 м. 46 с.
Вид битрейта : Переменный
Битрейт : 317 Кбит/сек
Максимальный битрейт : 445 Кбит/сек
Каналы : 2 канала
Расположение каналов : Front: L R
Частота : 48,0 КГц
Метод сжатия : С потерями
Размер потока : 17,6 Мбайт (7%)
Размер потока оригинала : 17,6 Мбайт (7%)
Язык : English
Дата кодирования : UTC 2013-08-08 18:07:53
Дата пометки : UTC 2013-08-08 18:07:53
mdhd_Duration : 466261
Общее
Полное имя : C:\Users\luka\Desktop\Monument-Dimitri-Arleri\720 ProRes Feature\03 Angel Cut.mp4
Формат : MPEG-4
Профиль формата : Base Media / Version 2
Идентификатор кодека : mp42
Размер файла : 140 Мбайт
Продолжительность : 4 м. 31 с.
Режим общего битрейта : Переменный
Общий поток : 4316 Кбит/сек
Дата кодирования : UTC 2013-08-09 02:51:22
Дата пометки : UTC 2013-08-09 02:51:32
©TIM : 00:00:00:00
©TSC : 24000
©TSZ : 1001
Видео
Идентификатор : 1
Формат : AVC
Формат/Информация : Advanced Video Codec
Профиль формата : High@L3.1
Параметр CABAC формата : Да
Параметр ReFrames формата : 3 кадра
Идентификатор кодека : avc1
Идентификатор кодека/Информация : Advanced Video Coding
Продолжительность : 4 м. 31 с.
Продолжительность оригинала : 4 м. 31 с.
Битрейт : 3994 Кбит/сек
Ширина : 1280 пикселей
Высота : 720 пикселей
Соотношение сторон : 16:9
Режим частоты кадров : Переменный
Частота кадров : 23,976 кадра/сек
Минимальная частота кадров : 23,976 кадра/сек
Максимальная частота кадров : 24,000 кадра/сек
Стандарт вещания : NTSC
Цветовое пространство : YUV
Субдискретизация насыщенности : 4:2:0
Битовая глубина : 8 бит
Тип развёртки : Прогрессивная
Бит/(Пиксели*Кадры) : 0.181
Размер потока : 129 Мбайт (93%)
Размер потока оригинала : 129 Мбайт (93%)
Язык : English
Дата кодирования : UTC 2013-08-09 02:51:22
Дата пометки : UTC 2013-08-09 02:51:22
Основные цвета : BT.709
Характеристики трансфера : BT.709
Коэффициенты матрицы : BT.709
mdhd_Duration : 271313
Аудио
Идентификатор : 2
Формат : AAC
Формат/Информация : Advanced Audio Codec
Профиль формата : LC
Идентификатор кодека : 40
Продолжительность : 4 м. 31 с.
Продолжительность оригинала : 4 м. 31 с.
Вид битрейта : Переменный
Битрейт : 317 Кбит/сек
Максимальный битрейт : 452 Кбит/сек
Каналы : 2 канала
Расположение каналов : Front: L R
Частота : 48,0 КГц
Метод сжатия : С потерями
Размер потока : 10,3 Мбайт (7%)
Размер потока оригинала : 10,3 Мбайт (7%)
Язык : English
Дата кодирования : UTC 2013-08-09 02:51:22
Дата пометки : UTC 2013-08-09 02:51:22
mdhd_Duration : 271360
Общее
Полное имя : C:\Users\luka\Desktop\Monument-Dimitri-Arleri\720 ProRes Feature\04 Flower Fan Helix.mp4
Формат : MPEG-4
Профиль формата : Base Media / Version 2
Идентификатор кодека : mp42
Размер файла : 153 Мбайт
Продолжительность : 4 м. 56 с.
Режим общего битрейта : Переменный
Общий поток : 4316 Кбит/сек
Дата кодирования : UTC 2013-08-08 19:25:40
Дата пометки : UTC 2013-08-08 19:25:53
©TIM : 00:00:00:00
©TSC : 24000
©TSZ : 1001
Видео
Идентификатор : 1
Формат : AVC
Формат/Информация : Advanced Video Codec
Профиль формата : High@L3.1
Параметр CABAC формата : Да
Параметр ReFrames формата : 3 кадра
Идентификатор кодека : avc1
Идентификатор кодека/Информация : Advanced Video Coding
Продолжительность : 4 м. 56 с.
Продолжительность оригинала : 4 м. 56 с.
Битрейт : 3994 Кбит/сек
Ширина : 1280 пикселей
Высота : 720 пикселей
Соотношение сторон : 16:9
Режим частоты кадров : Переменный
Частота кадров : 23,976 кадра/сек
Минимальная частота кадров : 23,976 кадра/сек
Максимальная частота кадров : 24,000 кадра/сек
Стандарт вещания : NTSC
Цветовое пространство : YUV
Субдискретизация насыщенности : 4:2:0
Битовая глубина : 8 бит
Тип развёртки : Прогрессивная
Бит/(Пиксели*Кадры) : 0.181
Размер потока : 141 Мбайт (93%)
Размер потока оригинала : 141 Мбайт (93%)
Язык : English
Дата кодирования : UTC 2013-08-08 19:25:40
Дата пометки : UTC 2013-08-08 19:25:40
Основные цвета : BT.709
Характеристики трансфера : BT.709
Коэффициенты матрицы : BT.709
mdhd_Duration : 296755
Аудио
Идентификатор : 2
Формат : AAC
Формат/Информация : Advanced Audio Codec
Профиль формата : LC
Идентификатор кодека : 40
Продолжительность : 4 м. 56 с.
Продолжительность оригинала : 4 м. 56 с.
Вид битрейта : Переменный
Битрейт : 317 Кбит/сек
Максимальный битрейт : 455 Кбит/сек
Каналы : 2 канала
Расположение каналов : Front: L R
Частота : 48,0 КГц
Метод сжатия : С потерями
Размер потока : 11,2 Мбайт (7%)
Размер потока оригинала : 11,2 Мбайт (7%)
Язык : English
Дата кодирования : UTC 2013-08-08 19:25:40
Дата пометки : UTC 2013-08-08 19:25:40
mdhd_Duration : 296789
Общее
Полное имя : C:\Users\luka\Desktop\Monument-Dimitri-Arleri\720 ProRes Feature\05 Flip Flop Isolation.mp4
Формат : MPEG-4
Профиль формата : Base Media / Version 2
Идентификатор кодека : mp42
Размер файла : 215 Мбайт
Продолжительность : 6 м. 57 с.
Режим общего битрейта : Переменный
Общий поток : 4317 Кбит/сек
Дата кодирования : UTC 2013-08-08 20:18:56
Дата пометки : UTC 2013-08-08 20:19:13
©TIM : 00:00:00:00
©TSC : 24000
©TSZ : 1001
Видео
Идентификатор : 1
Формат : AVC
Формат/Информация : Advanced Video Codec
Профиль формата : High@L3.1
Параметр CABAC формата : Да
Параметр ReFrames формата : 3 кадра
Идентификатор кодека : avc1
Идентификатор кодека/Информация : Advanced Video Coding
Продолжительность : 6 м. 57 с.
Продолжительность оригинала : 6 м. 57 с.
Битрейт : 3995 Кбит/сек
Ширина : 1280 пикселей
Высота : 720 пикселей
Соотношение сторон : 16:9
Режим частоты кадров : Переменный
Частота кадров : 23,976 кадра/сек
Минимальная частота кадров : 23,976 кадра/сек
Максимальная частота кадров : 24,000 кадра/сек
Стандарт вещания : NTSC
Цветовое пространство : YUV
Субдискретизация насыщенности : 4:2:0
Битовая глубина : 8 бит
Тип развёртки : Прогрессивная
Бит/(Пиксели*Кадры) : 0.181
Размер потока : 199 Мбайт (93%)
Размер потока оригинала : 199 Мбайт (93%)
Язык : English
Дата кодирования : UTC 2013-08-08 20:18:56
Дата пометки : UTC 2013-08-08 20:18:56
Основные цвета : BT.709
Характеристики трансфера : BT.709
Коэффициенты матрицы : BT.709
mdhd_Duration : 417667
Аудио
Идентификатор : 2
Формат : AAC
Формат/Информация : Advanced Audio Codec
Профиль формата : LC
Идентификатор кодека : 40
Продолжительность : 6 м. 57 с.
Продолжительность оригинала : 6 м. 57 с.
Вид битрейта : Переменный
Битрейт : 317 Кбит/сек
Максимальный битрейт : 458 Кбит/сек
Каналы : 2 канала
Расположение каналов : Front: L R
Частота : 48,0 КГц
Метод сжатия : С потерями
Размер потока : 15,8 Мбайт (7%)
Размер потока оригинала : 15,8 Мбайт (7%)
Язык : English
Дата кодирования : UTC 2013-08-08 20:18:56
Дата пометки : UTC 2013-08-08 20:18:56
mdhd_Duration : 417707
Общее
Полное имя : C:\Users\luka\Desktop\Monument-Dimitri-Arleri\720 ProRes Feature\06 Mechanical Air.mp4
Формат : MPEG-4
Профиль формата : Base Media / Version 2
Идентификатор кодека : mp42
Размер файла : 152 Мбайт
Продолжительность : 4 м. 55 с.
Режим общего битрейта : Переменный
Общий поток : 4316 Кбит/сек
Дата кодирования : UTC 2013-08-08 20:03:53
Дата пометки : UTC 2013-08-08 20:04:05
©TIM : 00:00:00:00
©TSC : 24000
©TSZ : 1001
Видео
Идентификатор : 1
Формат : AVC
Формат/Информация : Advanced Video Codec
Профиль формата : High@L3.1
Параметр CABAC формата : Да
Параметр ReFrames формата : 3 кадра
Идентификатор кодека : avc1
Идентификатор кодека/Информация : Advanced Video Coding
Продолжительность : 4 м. 55 с.
Продолжительность оригинала : 4 м. 55 с.
Битрейт : 3994 Кбит/сек
Ширина : 1280 пикселей
Высота : 720 пикселей
Соотношение сторон : 16:9
Режим частоты кадров : Переменный
Частота кадров : 23,976 кадра/сек
Минимальная частота кадров : 23,976 кадра/сек
Максимальная частота кадров : 24,000 кадра/сек
Стандарт вещания : NTSC
Цветовое пространство : YUV
Субдискретизация насыщенности : 4:2:0
Битовая глубина : 8 бит
Тип развёртки : Прогрессивная
Бит/(Пиксели*Кадры) : 0.181
Размер потока : 141 Мбайт (93%)
Размер потока оригинала : 141 Мбайт (93%)
Язык : English
Дата кодирования : UTC 2013-08-08 20:03:53
Дата пометки : UTC 2013-08-08 20:03:53
Основные цвета : BT.709
Характеристики трансфера : BT.709
Коэффициенты матрицы : BT.709
mdhd_Duration : 295879
Аудио
Идентификатор : 2
Формат : AAC
Формат/Информация : Advanced Audio Codec
Профиль формата : LC
Идентификатор кодека : 40
Продолжительность : 4 м. 55 с.
Продолжительность оригинала : 4 м. 55 с.
Вид битрейта : Переменный
Битрейт : 317 Кбит/сек
Максимальный битрейт : 459 Кбит/сек
Каналы : 2 канала
Расположение каналов : Front: L R
Частота : 48,0 КГц
Метод сжатия : С потерями
Размер потока : 11,2 Мбайт (7%)
Размер потока оригинала : 11,2 Мбайт (7%)
Язык : English
Дата кодирования : UTC 2013-08-08 20:03:53
Дата пометки : UTC 2013-08-08 20:03:53
mdhd_Duration : 295915
Общее
Полное имя : C:\Users\luka\Desktop\Monument-Dimitri-Arleri\720 ProRes Feature\07 Around the Block.mp4
Формат : MPEG-4
Профиль формата : Base Media / Version 2
Идентификатор кодека : mp42
Размер файла : 157 Мбайт
Продолжительность : 5 м. 4 с.
Режим общего битрейта : Переменный
Общий поток : 4317 Кбит/сек
Дата кодирования : UTC 2013-08-08 19:52:38
Дата пометки : UTC 2013-08-08 19:52:51
©TIM : 00:00:00:00
©TSC : 24000
©TSZ : 1001
Видео
Идентификатор : 1
Формат : AVC
Формат/Информация : Advanced Video Codec
Профиль формата : High@L3.1
Параметр CABAC формата : Да
Параметр ReFrames формата : 3 кадра
Идентификатор кодека : avc1
Идентификатор кодека/Информация : Advanced Video Coding
Продолжительность : 5 м. 4 с.
Продолжительность оригинала : 5 м. 4 с.
Битрейт : 3995 Кбит/сек
Ширина : 1280 пикселей
Высота : 720 пикселей
Соотношение сторон : 16:9
Режим частоты кадров : Переменный
Частота кадров : 23,976 кадра/сек
Минимальная частота кадров : 23,976 кадра/сек
Максимальная частота кадров : 24,000 кадра/сек
Стандарт вещания : NTSC
Цветовое пространство : YUV
Субдискретизация насыщенности : 4:2:0
Битовая глубина : 8 бит
Тип развёртки : Прогрессивная
Бит/(Пиксели*Кадры) : 0.181
Размер потока : 145 Мбайт (93%)
Размер потока оригинала : 145 Мбайт (93%)
Язык : English
Дата кодирования : UTC 2013-08-08 19:52:38
Дата пометки : UTC 2013-08-08 19:52:38
Основные цвета : BT.709
Характеристики трансфера : BT.709
Коэффициенты матрицы : BT.709
mdhd_Duration : 304137
Аудио
Идентификатор : 2
Формат : AAC
Формат/Информация : Advanced Audio Codec
Профиль формата : LC
Идентификатор кодека : 40
Продолжительность : 5 м. 4 с.
Продолжительность оригинала : 5 м. 4 с.
Вид битрейта : Переменный
Битрейт : 317 Кбит/сек
Максимальный битрейт : 444 Кбит/сек
Каналы : 2 канала
Расположение каналов : Front: L R
Частота : 48,0 КГц
Метод сжатия : С потерями
Размер потока : 11,5 Мбайт (7%)
Размер потока оригинала : 11,5 Мбайт (7%)
Язык : English
Дата кодирования : UTC 2013-08-08 19:52:38
Дата пометки : UTC 2013-08-08 19:52:38
mdhd_Duration : 304171
Общее
Полное имя : C:\Users\luka\Desktop\Monument-Dimitri-Arleri\720 ProRes Feature\08 Scissor Split Combo.mp4
Формат : MPEG-4
Профиль формата : Base Media / Version 2
Идентификатор кодека : mp42
Размер файла : 229 Мбайт
Продолжительность : 7 м. 25 с.
Режим общего битрейта : Переменный
Общий поток : 4317 Кбит/сек
Дата кодирования : UTC 2013-08-08 22:01:07
Дата пометки : UTC 2013-08-08 22:01:27
©TIM : 00:00:00:00
©TSC : 24000
©TSZ : 1001
Видео
Идентификатор : 1
Формат : AVC
Формат/Информация : Advanced Video Codec
Профиль формата : High@L3.1
Параметр CABAC формата : Да
Параметр ReFrames формата : 3 кадра
Идентификатор кодека : avc1
Идентификатор кодека/Информация : Advanced Video Coding
Продолжительность : 7 м. 25 с.
Продолжительность оригинала : 7 м. 25 с.
Битрейт : 3995 Кбит/сек
Ширина : 1280 пикселей
Высота : 720 пикселей
Соотношение сторон : 16:9
Режим частоты кадров : Переменный
Частота кадров : 23,976 кадра/сек
Минимальная частота кадров : 23,976 кадра/сек
Максимальная частота кадров : 24,000 кадра/сек
Стандарт вещания : NTSC
Цветовое пространство : YUV
Субдискретизация насыщенности : 4:2:0
Битовая глубина : 8 бит
Тип развёртки : Прогрессивная
Бит/(Пиксели*Кадры) : 0.181
Размер потока : 212 Мбайт (93%)
Размер потока оригинала : 212 Мбайт (93%)
Язык : English
Дата кодирования : UTC 2013-08-08 22:01:07
Дата пометки : UTC 2013-08-08 22:01:07
Основные цвета : BT.709
Характеристики трансфера : BT.709
Коэффициенты матрицы : BT.709
mdhd_Duration : 445445
Аудио
Идентификатор : 2
Формат : AAC
Формат/Информация : Advanced Audio Codec
Профиль формата : LC
Идентификатор кодека : 40
Продолжительность : 7 м. 25 с.
Продолжительность оригинала : 7 м. 25 с.
Вид битрейта : Переменный
Битрейт : 317 Кбит/сек
Максимальный битрейт : 437 Кбит/сек
Каналы : 2 канала
Расположение каналов : Front: L R
Частота : 48,0 КГц
Метод сжатия : С потерями
Размер потока : 16,9 Мбайт (7%)
Размер потока оригинала : 16,9 Мбайт (7%)
Язык : English
Дата кодирования : UTC 2013-08-08 22:01:07
Дата пометки : UTC 2013-08-08 22:01:07
mdhd_Duration : 445483
Общее
Полное имя : C:\Users\luka\Desktop\Monument-Dimitri-Arleri\720 ProRes Feature\09 One-Handed-Slider.mp4
Формат : MPEG-4
Профиль формата : Base Media / Version 2
Идентификатор кодека : mp42
Размер файла : 179 Мбайт
Продолжительность : 5 м. 48 с.
Режим общего битрейта : Переменный
Общий поток : 4317 Кбит/сек
Дата кодирования : UTC 2013-08-08 21:45:31
Дата пометки : UTC 2013-08-08 21:45:46
©TIM : 00:00:00:00
©TSC : 24000
©TSZ : 1001
Видео
Идентификатор : 1
Формат : AVC
Формат/Информация : Advanced Video Codec
Профиль формата : High@L3.1
Параметр CABAC формата : Да
Параметр ReFrames формата : 3 кадра
Идентификатор кодека : avc1
Идентификатор кодека/Информация : Advanced Video Coding
Продолжительность : 5 м. 48 с.
Продолжительность оригинала : 5 м. 48 с.
Битрейт : 3995 Кбит/сек
Ширина : 1280 пикселей
Высота : 720 пикселей
Соотношение сторон : 16:9
Режим частоты кадров : Переменный
Частота кадров : 23,976 кадра/сек
Минимальная частота кадров : 23,976 кадра/сек
Максимальная частота кадров : 24,000 кадра/сек
Стандарт вещания : NTSC
Цветовое пространство : YUV
Субдискретизация насыщенности : 4:2:0
Битовая глубина : 8 бит
Тип развёртки : Прогрессивная
Бит/(Пиксели*Кадры) : 0.181
Размер потока : 166 Мбайт (93%)
Размер потока оригинала : 166 Мбайт (93%)
Язык : English
Дата кодирования : UTC 2013-08-08 21:45:31
Дата пометки : UTC 2013-08-08 21:45:31
Основные цвета : BT.709
Характеристики трансфера : BT.709
Коэффициенты матрицы : BT.709
mdhd_Duration : 348682
Аудио
Идентификатор : 2
Формат : AAC
Формат/Информация : Advanced Audio Codec
Профиль формата : LC
Идентификатор кодека : 40
Продолжительность : 5 м. 48 с.
Продолжительность оригинала : 5 м. 48 с.
Вид битрейта : Переменный
Битрейт : 317 Кбит/сек
Максимальный битрейт : 447 Кбит/сек
Каналы : 2 канала
Расположение каналов : Front: L R
Частота : 48,0 КГц
Метод сжатия : С потерями
Размер потока : 13,2 Мбайт (7%)
Размер потока оригинала : 13,2 Мбайт (7%)
Язык : English
Дата кодирования : UTC 2013-08-08 21:45:31
Дата пометки : UTC 2013-08-08 21:45:31
mdhd_Duration : 348736
Общее
Полное имя : C:\Users\luka\Desktop\Monument-Dimitri-Arleri\720 ProRes Feature\10 Riffle Fan.mp4
Формат : MPEG-4
Профиль формата : Base Media / Version 2
Идентификатор кодека : mp42
Размер файла : 139 Мбайт
Продолжительность : 4 м. 29 с.
Режим общего битрейта : Переменный
Общий поток : 4316 Кбит/сек
Дата кодирования : UTC 2013-08-08 21:33:33
Дата пометки : UTC 2013-08-08 21:33:43
©TIM : 00:00:00:00
©TSC : 24000
©TSZ : 1001
Видео
Идентификатор : 1
Формат : AVC
Формат/Информация : Advanced Video Codec
Профиль формата : High@L3.1
Параметр CABAC формата : Да
Параметр ReFrames формата : 3 кадра
Идентификатор кодека : avc1
Идентификатор кодека/Информация : Advanced Video Coding
Продолжительность : 4 м. 29 с.
Продолжительность оригинала : 4 м. 29 с.
Битрейт : 3995 Кбит/сек
Ширина : 1280 пикселей
Высота : 720 пикселей
Соотношение сторон : 16:9
Режим частоты кадров : Переменный
Частота кадров : 23,976 кадра/сек
Минимальная частота кадров : 23,976 кадра/сек
Максимальная частота кадров : 24,000 кадра/сек
Стандарт вещания : NTSC
Цветовое пространство : YUV
Субдискретизация насыщенности : 4:2:0
Битовая глубина : 8 бит
Тип развёртки : Прогрессивная
Бит/(Пиксели*Кадры) : 0.181
Размер потока : 128 Мбайт (93%)
Размер потока оригинала : 128 Мбайт (93%)
Язык : English
Дата кодирования : UTC 2013-08-08 21:33:33
Дата пометки : UTC 2013-08-08 21:33:33
Основные цвета : BT.709
Характеристики трансфера : BT.709
Коэффициенты матрицы : BT.709
mdhd_Duration : 269436
Аудио
Идентификатор : 2
Формат : AAC
Формат/Информация : Advanced Audio Codec
Профиль формата : LC
Идентификатор кодека : 40
Продолжительность : 4 м. 29 с.
Продолжительность оригинала : 4 м. 29 с.
Вид битрейта : Переменный
Битрейт : 317 Кбит/сек
Максимальный битрейт : 454 Кбит/сек
Каналы : 2 канала
Расположение каналов : Front: L R
Частота : 48,0 КГц
Метод сжатия : С потерями
Размер потока : 10,2 Мбайт (7%)
Размер потока оригинала : 10,2 Мбайт (7%)
Язык : English
Дата кодирования : UTC 2013-08-08 21:33:33
Дата пометки : UTC 2013-08-08 21:33:33
mdhd_Duration : 269483
Общее
Полное имя : C:\Users\luka\Desktop\Monument-Dimitri-Arleri\720 ProRes Feature\11 Moulin Rouge.mp4
Формат : MPEG-4
Профиль формата : Base Media / Version 2
Идентификатор кодека : mp42
Размер файла : 314 Мбайт
Продолжительность : 10 м.
Режим общего битрейта : Переменный
Общий поток : 4317 Кбит/сек
Дата кодирования : UTC 2013-08-08 21:23:23
Дата пометки : UTC 2013-08-08 21:23:47
©TIM : 00:00:00:00
©TSC : 24000
©TSZ : 1001
Видео
Идентификатор : 1
Формат : AVC
Формат/Информация : Advanced Video Codec
Профиль формата : High@L3.1
Параметр CABAC формата : Да
Параметр ReFrames формата : 3 кадра
Идентификатор кодека : avc1
Идентификатор кодека/Информация : Advanced Video Coding
Продолжительность : 10 м.
Продолжительность оригинала : 10 м.
Битрейт : 3995 Кбит/сек
Ширина : 1280 пикселей
Высота : 720 пикселей
Соотношение сторон : 16:9
Режим частоты кадров : Переменный
Частота кадров : 23,976 кадра/сек
Минимальная частота кадров : 23,976 кадра/сек
Максимальная частота кадров : 24,000 кадра/сек
Стандарт вещания : NTSC
Цветовое пространство : YUV
Субдискретизация насыщенности : 4:2:0
Битовая глубина : 8 бит
Тип развёртки : Прогрессивная
Бит/(Пиксели*Кадры) : 0.181
Размер потока : 291 Мбайт (93%)
Размер потока оригинала : 291 Мбайт (93%)
Язык : English
Дата кодирования : UTC 2013-08-08 21:23:23
Дата пометки : UTC 2013-08-08 21:23:23
Основные цвета : BT.709
Характеристики трансфера : BT.709
Коэффициенты матрицы : BT.709
mdhd_Duration : 610401
Аудио
Идентификатор : 2
Формат : AAC
Формат/Информация : Advanced Audio Codec
Профиль формата : LC
Идентификатор кодека : 40
Продолжительность : 10 м.
Продолжительность оригинала : 10 м.
Вид битрейта : Переменный
Битрейт : 317 Кбит/сек
Максимальный битрейт : 452 Кбит/сек
Каналы : 2 канала
Расположение каналов : Front: L R
Частота : 48,0 КГц
Метод сжатия : С потерями
Размер потока : 23,1 Мбайт (7%)
Размер потока оригинала : 23,1 Мбайт (7%)
Язык : English
Дата кодирования : UTC 2013-08-08 21:23:23
Дата пометки : UTC 2013-08-08 21:23:23
mdhd_Duration : 610453
Общее
Полное имя : C:\Users\luka\Desktop\Monument-Dimitri-Arleri\720 ProRes Feature\12 Moulin Rouge 2.mp4
Формат : MPEG-4
Профиль формата : Base Media / Version 2
Идентификатор кодека : mp42
Размер файла : 329 Мбайт
Продолжительность : 10 м.
Режим общего битрейта : Переменный
Общий поток : 4317 Кбит/сек
Дата кодирования : UTC 2013-08-08 22:42:46
Дата пометки : UTC 2013-08-08 22:43:13
©TIM : 00:00:00:00
©TSC : 24000
©TSZ : 1001
Видео
Идентификатор : 1
Формат : AVC
Формат/Информация : Advanced Video Codec
Профиль формата : High@L3.1
Параметр CABAC формата : Да
Параметр ReFrames формата : 3 кадра
Идентификатор кодека : avc1
Идентификатор кодека/Информация : Advanced Video Coding
Продолжительность : 10 м.
Продолжительность оригинала : 10 м.
Битрейт : 3995 Кбит/сек
Ширина : 1280 пикселей
Высота : 720 пикселей
Соотношение сторон : 16:9
Режим частоты кадров : Переменный
Частота кадров : 23,976 кадра/сек
Минимальная частота кадров : 23,976 кадра/сек
Максимальная частота кадров : 24,000 кадра/сек
Стандарт вещания : NTSC
Цветовое пространство : YUV
Субдискретизация насыщенности : 4:2:0
Битовая глубина : 8 бит
Тип развёртки : Прогрессивная
Бит/(Пиксели*Кадры) : 0.181
Размер потока : 304 Мбайт (93%)
Размер потока оригинала : 304 Мбайт (93%)
Язык : English
Дата кодирования : UTC 2013-08-08 22:42:46
Дата пометки : UTC 2013-08-08 22:42:46
Основные цвета : BT.709
Характеристики трансфера : BT.709
Коэффициенты матрицы : BT.709
mdhd_Duration : 639305
Аудио
Идентификатор : 2
Формат : AAC
Формат/Информация : Advanced Audio Codec
Профиль формата : LC
Идентификатор кодека : 40
Продолжительность : 10 м.
Продолжительность оригинала : 10 м.
Вид битрейта : Переменный
Битрейт : 317 Кбит/сек
Максимальный битрейт : 455 Кбит/сек
Каналы : 2 канала
Расположение каналов : Front: L R
Частота : 48,0 КГц
Метод сжатия : С потерями
Размер потока : 24,2 Мбайт (7%)
Размер потока оригинала : 24,2 Мбайт (7%)
Язык : English
Дата кодирования : UTC 2013-08-08 22:42:46
Дата пометки : UTC 2013-08-08 22:42:46
mdhd_Duration : 639339
Общее
Полное имя : C:\Users\luka\Desktop\Monument-Dimitri-Arleri\720 ProRes Feature\13 Riffle Turn.mp4
Формат : MPEG-4
Профиль формата : Base Media / Version 2
Идентификатор кодека : mp42
Размер файла : 306 Мбайт
Продолжительность : 9 м. 55 с.
Режим общего битрейта : Переменный
Общий поток : 4317 Кбит/сек
Дата кодирования : UTC 2013-08-08 23:04:53
Дата пометки : UTC 2013-08-08 23:05:16
©TIM : 00:00:00:00
©TSC : 24000
©TSZ : 1001
Видео
Идентификатор : 1
Формат : AVC
Формат/Информация : Advanced Video Codec
Профиль формата : High@L3.1
Параметр CABAC формата : Да
Параметр ReFrames формата : 3 кадра
Идентификатор кодека : avc1
Идентификатор кодека/Информация : Advanced Video Coding
Продолжительность : 9 м. 55 с.
Продолжительность оригинала : 9 м. 55 с.
Битрейт : 3996 Кбит/сек
Ширина : 1280 пикселей
Высота : 720 пикселей
Соотношение сторон : 16:9
Режим частоты кадров : Переменный
Частота кадров : 23,976 кадра/сек
Минимальная частота кадров : 23,976 кадра/сек
Максимальная частота кадров : 24,000 кадра/сек
Стандарт вещания : NTSC
Цветовое пространство : YUV
Субдискретизация насыщенности : 4:2:0
Битовая глубина : 8 бит
Тип развёртки : Прогрессивная
Бит/(Пиксели*Кадры) : 0.181
Размер потока : 284 Мбайт (93%)
Размер потока оригинала : 284 Мбайт (93%)
Язык : English
Дата кодирования : UTC 2013-08-08 23:04:53
Дата пометки : UTC 2013-08-08 23:04:53
Основные цвета : BT.709
Характеристики трансфера : BT.709
Коэффициенты матрицы : BT.709
mdhd_Duration : 595220
Аудио
Идентификатор : 2
Формат : AAC
Формат/Информация : Advanced Audio Codec
Профиль формата : LC
Идентификатор кодека : 40
Продолжительность : 9 м. 55 с.
Продолжительность оригинала : 9 м. 55 с.
Вид битрейта : Переменный
Битрейт : 317 Кбит/сек
Максимальный битрейт : 458 Кбит/сек
Каналы : 2 канала
Расположение каналов : Front: L R
Частота : 48,0 КГц
Метод сжатия : С потерями
Размер потока : 22,5 Мбайт (7%)
Размер потока оригинала : 22,5 Мбайт (7%)
Язык : English
Дата кодирования : UTC 2013-08-08 23:04:53
Дата пометки : UTC 2013-08-08 23:04:53
mdhd_Duration : 595264
Общее
Полное имя : C:\Users\luka\Desktop\Monument-Dimitri-Arleri\720 ProRes Feature\14 Accordion.mp4
Формат : MPEG-4
Профиль формата : Base Media / Version 2
Идентификатор кодека : mp42
Размер файла : 218 Мбайт
Продолжительность : 7 м. 4 с.
Режим общего битрейта : Переменный
Общий поток : 4316 Кбит/сек
Дата кодирования : UTC 2013-08-09 02:44:49
Дата пометки : UTC 2013-08-09 02:45:05
©TIM : 00:00:00:00
©TSC : 24000
©TSZ : 1001
Видео
Идентификатор : 1
Формат : AVC
Формат/Информация : Advanced Video Codec
Профиль формата : High@L3.1
Параметр CABAC формата : Да
Параметр ReFrames формата : 3 кадра
Идентификатор кодека : avc1
Идентификатор кодека/Информация : Advanced Video Coding
Продолжительность : 7 м. 4 с.
Продолжительность оригинала : 7 м. 4 с.
Битрейт : 3995 Кбит/сек
Ширина : 1280 пикселей
Высота : 720 пикселей
Соотношение сторон : 16:9
Режим частоты кадров : Переменный
Частота кадров : 23,976 кадра/сек
Минимальная частота кадров : 23,976 кадра/сек
Максимальная частота кадров : 24,000 кадра/сек
Стандарт вещания : NTSC
Цветовое пространство : YUV
Субдискретизация насыщенности : 4:2:0
Битовая глубина : 8 бит
Тип развёртки : Прогрессивная
Бит/(Пиксели*Кадры) : 0.181
Размер потока : 202 Мбайт (93%)
Размер потока оригинала : 202 Мбайт (93%)
Язык : English
Дата кодирования : UTC 2013-08-09 02:44:49
Дата пометки : UTC 2013-08-09 02:44:49
Основные цвета : BT.709
Характеристики трансфера : BT.709
Коэффициенты матрицы : BT.709
mdhd_Duration : 424466
Аудио
Идентификатор : 2
Формат : AAC
Формат/Информация : Advanced Audio Codec
Профиль формата : LC
Идентификатор кодека : 40
Продолжительность : 7 м. 4 с.
Продолжительность оригинала : 7 м. 4 с.
Вид битрейта : Переменный
Битрейт : 317 Кбит/сек
Максимальный битрейт : 448 Кбит/сек
Каналы : 2 канала
Расположение каналов : Front: L R
Частота : 48,0 КГц
Метод сжатия : С потерями
Размер потока : 16,1 Мбайт (7%)
Размер потока оригинала : 16,1 Мбайт (7%)
Язык : English
Дата кодирования : UTC 2013-08-09 02:44:49
Дата пометки : UTC 2013-08-09 02:44:49
mdhd_Duration : 424512
Общее
Полное имя : C:\Users\luka\Desktop\Monument-Dimitri-Arleri\720 ProRes Feature\15 Speanut.mp4
Формат : MPEG-4
Профиль формата : Base Media / Version 2
Идентификатор кодека : mp42
Размер файла : 315 Мбайт
Продолжительность : 10 м.
Режим общего битрейта : Переменный
Общий поток : 4317 Кбит/сек
Дата кодирования : UTC 2013-08-09 02:34:44
Дата пометки : UTC 2013-08-09 02:35:07
©TIM : 00:00:00:00
©TSC : 24000
©TSZ : 1001
Видео
Идентификатор : 1
Формат : AVC
Формат/Информация : Advanced Video Codec
Профиль формата : High@L3.1
Параметр CABAC формата : Да
Параметр ReFrames формата : 3 кадра
Идентификатор кодека : avc1
Идентификатор кодека/Информация : Advanced Video Coding
Продолжительность : 10 м.
Продолжительность оригинала : 10 м.
Битрейт : 3995 Кбит/сек
Ширина : 1280 пикселей
Высота : 720 пикселей
Соотношение сторон : 16:9
Режим частоты кадров : Переменный
Частота кадров : 23,976 кадра/сек
Минимальная частота кадров : 23,976 кадра/сек
Максимальная частота кадров : 24,000 кадра/сек
Стандарт вещания : NTSC
Цветовое пространство : YUV
Субдискретизация насыщенности : 4:2:0
Битовая глубина : 8 бит
Тип развёртки : Прогрессивная
Бит/(Пиксели*Кадры) : 0.181
Размер потока : 291 Мбайт (93%)
Размер потока оригинала : 291 Мбайт (93%)
Язык : English
Дата кодирования : UTC 2013-08-09 02:34:44
Дата пометки : UTC 2013-08-09 02:34:44
Основные цвета : BT.709
Характеристики трансфера : BT.709
Коэффициенты матрицы : BT.709
mdhd_Duration : 611319
Аудио
Идентификатор : 2
Формат : AAC
Формат/Информация : Advanced Audio Codec
Профиль формата : LC
Идентификатор кодека : 40
Продолжительность : 10 м.
Продолжительность оригинала : 10 м.
Вид битрейта : Переменный
Битрейт : 317 Кбит/сек
Максимальный битрейт : 459 Кбит/сек
Каналы : 2 канала
Расположение каналов : Front: L R
Частота : 48,0 КГц
Метод сжатия : С потерями
Размер потока : 23,1 Мбайт (7%)
Размер потока оригинала : 23,1 Мбайт (7%)
Язык : English
Дата кодирования : UTC 2013-08-09 02:34:44
Дата пометки : UTC 2013-08-09 02:34:44
mdhd_Duration : 611371
Общее
Полное имя : C:\Users\luka\Desktop\Monument-Dimitri-Arleri\720 ProRes Feature\16 Surface.mp4
Формат : MPEG-4
Профиль формата : Base Media / Version 2
Идентификатор кодека : mp42
Размер файла : 117 Мбайт
Продолжительность : 3 м. 47 с.
Режим общего битрейта : Переменный
Общий поток : 4318 Кбит/сек
Дата кодирования : UTC 2013-08-09 02:20:35
Дата пометки : UTC 2013-08-09 02:20:43
©TIM : 00:00:00:00
©TSC : 24000
©TSZ : 1001
Видео
Идентификатор : 1
Формат : AVC
Формат/Информация : Advanced Video Codec
Профиль формата : High@L3.1
Параметр CABAC формата : Да
Параметр ReFrames формата : 3 кадра
Идентификатор кодека : avc1
Идентификатор кодека/Информация : Advanced Video Coding
Продолжительность : 3 м. 47 с.
Продолжительность оригинала : 3 м. 47 с.
Битрейт : 3996 Кбит/сек
Ширина : 1280 пикселей
Высота : 720 пикселей
Соотношение сторон : 16:9
Режим частоты кадров : Переменный
Частота кадров : 23,976 кадра/сек
Минимальная частота кадров : 23,976 кадра/сек
Максимальная частота кадров : 24,000 кадра/сек
Стандарт вещания : NTSC
Цветовое пространство : YUV
Субдискретизация насыщенности : 4:2:0
Битовая глубина : 8 бит
Тип развёртки : Прогрессивная
Бит/(Пиксели*Кадры) : 0.181
Размер потока : 108 Мбайт (93%)
Размер потока оригинала : 108 Мбайт (93%)
Язык : English
Дата кодирования : UTC 2013-08-09 02:20:35
Дата пометки : UTC 2013-08-09 02:20:35
Основные цвета : BT.709
Характеристики трансфера : BT.709
Коэффициенты матрицы : BT.709
mdhd_Duration : 227394
Аудио
Идентификатор : 2
Формат : AAC
Формат/Информация : Advanced Audio Codec
Профиль формата : LC
Идентификатор кодека : 40
Продолжительность : 3 м. 47 с.
Продолжительность оригинала : 3 м. 47 с.
Вид битрейта : Переменный
Битрейт : 317 Кбит/сек
Максимальный битрейт : 458 Кбит/сек
Каналы : 2 канала
Расположение каналов : Front: L R
Частота : 48,0 КГц
Метод сжатия : С потерями
Размер потока : 8,60 Мбайт (7%)
Размер потока оригинала : 8,60 Мбайт (7%)
Язык : English
Дата кодирования : UTC 2013-08-09 02:20:35
Дата пометки : UTC 2013-08-09 02:20:35
mdhd_Duration : 227435
Общее
Полное имя : C:\Users\luka\Desktop\Monument-Dimitri-Arleri\720 ProRes Feature\Bonus Content\Bloopers.mp4
Формат : MPEG-4
Профиль формата : Base Media / Version 2
Идентификатор кодека : mp42
Размер файла : 56,7 Мбайт
Продолжительность : 1 м. 50 с.
Режим общего битрейта : Переменный
Общий поток : 4317 Кбит/сек
Дата кодирования : UTC 2013-08-09 02:15:33
Дата пометки : UTC 2013-08-09 02:15:38
©TIM : 00:00:00:00
©TSC : 24000
©TSZ : 1001
Видео
Идентификатор : 1
Формат : AVC
Формат/Информация : Advanced Video Codec
Профиль формата : High@L3.1
Параметр CABAC формата : Да
Параметр ReFrames формата : 3 кадра
Идентификатор кодека : avc1
Идентификатор кодека/Информация : Advanced Video Coding
Продолжительность : 1 м. 50 с.
Продолжительность оригинала : 1 м. 50 с.
Битрейт : 3995 Кбит/сек
Ширина : 1280 пикселей
Высота : 720 пикселей
Соотношение сторон : 16:9
Режим частоты кадров : Переменный
Частота кадров : 23,976 кадра/сек
Минимальная частота кадров : 23,976 кадра/сек
Максимальная частота кадров : 24,000 кадра/сек
Стандарт вещания : NTSC
Цветовое пространство : YUV
Субдискретизация насыщенности : 4:2:0
Битовая глубина : 8 бит
Тип развёртки : Прогрессивная
Бит/(Пиксели*Кадры) : 0.181
Размер потока : 52,5 Мбайт (93%)
Размер потока оригинала : 52,5 Мбайт (93%)
Язык : English
Дата кодирования : UTC 2013-08-09 02:15:33
Дата пометки : UTC 2013-08-09 02:15:33
Основные цвета : BT.709
Характеристики трансфера : BT.709
Коэффициенты матрицы : BT.709
mdhd_Duration : 110235
Аудио
Идентификатор : 2
Формат : AAC
Формат/Информация : Advanced Audio Codec
Профиль формата : LC
Идентификатор кодека : 40
Продолжительность : 1 м. 50 с.
Продолжительность оригинала : 1 м. 50 с.
Вид битрейта : Переменный
Битрейт : 317 Кбит/сек
Максимальный битрейт : 443 Кбит/сек
Каналы : 2 канала
Расположение каналов : Front: L R
Частота : 48,0 КГц
Метод сжатия : С потерями
Размер потока : 4,17 Мбайт (7%)
Размер потока оригинала : 4,17 Мбайт (7%)
Язык : English
Дата кодирования : UTC 2013-08-09 02:15:33
Дата пометки : UTC 2013-08-09 02:15:33
mdhd_Duration : 110272
Общее
Полное имя : C:\Users\luka\Desktop\Monument-Dimitri-Arleri\720 ProRes Feature\Bonus Content\Cardistry-Discussion.mp4
Формат : MPEG-4
Профиль формата : Base Media / Version 2
Идентификатор кодека : mp42
Размер файла : 520 Мбайт
Продолжительность : 16 м.
Режим общего битрейта : Переменный
Общий поток : 4317 Кбит/сек
Дата кодирования : UTC 2013-08-09 02:12:14
Дата пометки : UTC 2013-08-09 02:12:48
©TIM : 00:00:00:00
©TSC : 24000
©TSZ : 1001
Видео
Идентификатор : 1
Формат : AVC
Формат/Информация : Advanced Video Codec
Профиль формата : High@L3.1
Параметр CABAC формата : Да
Параметр ReFrames формата : 3 кадра
Идентификатор кодека : avc1
Идентификатор кодека/Информация : Advanced Video Coding
Продолжительность : 16 м.
Продолжительность оригинала : 16 м.
Битрейт : 3995 Кбит/сек
Ширина : 1280 пикселей
Высота : 720 пикселей
Соотношение сторон : 16:9
Режим частоты кадров : Переменный
Частота кадров : 23,976 кадра/сек
Минимальная частота кадров : 23,976 кадра/сек
Максимальная частота кадров : 24,000 кадра/сек
Стандарт вещания : NTSC
Цветовое пространство : YUV
Субдискретизация насыщенности : 4:2:0
Битовая глубина : 8 бит
Тип развёртки : Прогрессивная
Бит/(Пиксели*Кадры) : 0.181
Размер потока : 481 Мбайт (93%)
Размер потока оригинала : 481 Мбайт (93%)
Язык : English
Дата кодирования : UTC 2013-08-09 02:12:14
Дата пометки : UTC 2013-08-09 02:12:14
Основные цвета : BT.709
Характеристики трансфера : BT.709
Коэффициенты матрицы : BT.709
mdhd_Duration : 1009967
Аудио
Идентификатор : 2
Формат : AAC
Формат/Информация : Advanced Audio Codec
Профиль формата : LC
Идентификатор кодека : 40
Продолжительность : 16 м.
Продолжительность оригинала : 16 м.
Вид битрейта : Переменный
Битрейт : 317 Кбит/сек
Максимальный битрейт : 414 Кбит/сек
Каналы : 2 канала
Расположение каналов : Front: L R
Частота : 48,0 КГц
Метод сжатия : С потерями
Размер потока : 38,2 Мбайт (7%)
Размер потока оригинала : 38,2 Мбайт (7%)
Язык : English
Дата кодирования : UTC 2013-08-09 02:12:14
Дата пометки : UTC 2013-08-09 02:12:14
mdhd_Duration : 1010005
Общее
Полное имя : C:\Users\luka\Desktop\Monument-Dimitri-Arleri\720 ProRes Feature\Bonus Content\Credits.mp4
Формат : MPEG-4
Профиль формата : Base Media / Version 2
Идентификатор кодека : mp42
Размер файла : 2,14 Мбайт
Продолжительность : 34 с.
Режим общего битрейта : Переменный
Общий поток : 517 Кбит/сек
Дата кодирования : UTC 2013-08-09 02:13:22
Дата пометки : UTC 2013-08-09 02:13:22
©TIM : 00:00:00:00
©TSC : 24000
©TSZ : 1001
Видео
Идентификатор : 1
Формат : AVC
Формат/Информация : Advanced Video Codec
Профиль формата : High@L3.1
Параметр CABAC формата : Да
Параметр ReFrames формата : 3 кадра
Параметр GOP формата : M=3, N=72
Идентификатор кодека : avc1
Идентификатор кодека/Информация : Advanced Video Coding
Продолжительность : 34 с.
Битрейт : 194 Кбит/сек
Ширина : 1280 пикселей
Высота : 720 пикселей
Соотношение сторон : 16:9
Режим частоты кадров : Постоянный
Частота кадров : 23,976 кадра/сек
Стандарт вещания : NTSC
Цветовое пространство : YUV
Субдискретизация насыщенности : 4:2:0
Битовая глубина : 8 бит
Тип развёртки : Прогрессивная
Бит/(Пиксели*Кадры) : 0.009
Размер потока : 822 Кбайт (38%)
Язык : English
Дата кодирования : UTC 2013-08-09 02:13:22
Дата пометки : UTC 2013-08-09 02:13:22
Основные цвета : BT.709
Характеристики трансфера : BT.709
Коэффициенты матрицы : BT.709
Аудио
Идентификатор : 2
Формат : AAC
Формат/Информация : Advanced Audio Codec
Профиль формата : LC
Идентификатор кодека : 40
Продолжительность : 34 с.
Продолжительность оригинала : 34 с.
Вид битрейта : Переменный
Битрейт : 319 Кбит/сек
Каналы : 2 канала
Расположение каналов : Front: L R
Частота : 48,0 КГц
Метод сжатия : С потерями
Размер потока : 1,31 Мбайт (61%)
Размер потока оригинала : 1,32 Мбайт (61%)
Язык : English
Дата кодирования : UTC 2013-08-09 02:13:22
Дата пометки : UTC 2013-08-09 02:13:22
mdhd_Duration : 34795
Общее
Полное имя : C:\Users\luka\Desktop\Monument-Dimitri-Arleri\720 ProRes Feature\Bonus Content\Trailer.mp4
Формат : MPEG-4
Профиль формата : Base Media / Version 2
Идентификатор кодека : mp42
Размер файла : 51,1 Мбайт
Продолжительность : 1 м. 39 с.
Режим общего битрейта : Переменный
Общий поток : 4316 Кбит/сек
Дата кодирования : UTC 2013-08-09 02:55:16
Дата пометки : UTC 2013-08-09 02:55:20
©TIM : 00:00:00:00
©TSC : 24000
©TSZ : 1001
Видео
Идентификатор : 1
Формат : AVC
Формат/Информация : Advanced Video Codec
Профиль формата : High@L3.1
Параметр CABAC формата : Да
Параметр ReFrames формата : 3 кадра
Идентификатор кодека : avc1
Идентификатор кодека/Информация : Advanced Video Coding
Продолжительность : 1 м. 39 с.
Продолжительность оригинала : 1 м. 39 с.
Битрейт : 3994 Кбит/сек
Ширина : 1280 пикселей
Высота : 720 пикселей
Соотношение сторон : 16:9
Режим частоты кадров : Переменный
Частота кадров : 23,976 кадра/сек
Минимальная частота кадров : 23,976 кадра/сек
Максимальная частота кадров : 24,000 кадра/сек
Стандарт вещания : NTSC
Цветовое пространство : YUV
Субдискретизация насыщенности : 4:2:0
Битовая глубина : 8 бит
Тип развёртки : Прогрессивная
Бит/(Пиксели*Кадры) : 0.181
Размер потока : 47,3 Мбайт (93%)
Размер потока оригинала : 47,3 Мбайт (93%)
Язык : English
Дата кодирования : UTC 2013-08-09 02:55:16
Дата пометки : UTC 2013-08-09 02:55:16
Основные цвета : BT.709
Характеристики трансфера : BT.709
Коэффициенты матрицы : BT.709
mdhd_Duration : 99308
Аудио
Идентификатор : 2
Формат : AAC
Формат/Информация : Advanced Audio Codec
Профиль формата : LC
Идентификатор кодека : 40
Продолжительность : 1 м. 39 с.
Продолжительность оригинала : 1 м. 39 с.
Вид битрейта : Переменный
Битрейт : 317 Кбит/сек
Максимальный битрейт : 413 Кбит/сек
Каналы : 2 канала
Расположение каналов : Front: L R
Частота : 48,0 КГц
Метод сжатия : С потерями
Размер потока : 3,76 Мбайт (7%)
Размер потока оригинала : 3,76 Мбайт (7%)
Язык : English
Дата кодирования : UTC 2013-08-09 02:55:16
Дата пометки : UTC 2013-08-09 02:55:16
mdhd_Duration : 99349
Общее
Полное имя : C:\Users\luka\Desktop\Monument-Dimitri-Arleri\720 ProRes Feature\Bonus Content\Variations.mp4
Формат : MPEG-4
Профиль формата : Base Media / Version 2
Идентификатор кодека : mp42
Размер файла : 27,3 Мбайт
Продолжительность : 53 с.
Режим общего битрейта : Переменный
Общий поток : 4318 Кбит/сек
Дата кодирования : UTC 2013-08-09 01:42:04
Дата пометки : UTC 2013-08-09 01:42:07
©TIM : 00:00:00:00
©TSC : 24000
©TSZ : 1001
Видео
Идентификатор : 1
Формат : AVC
Формат/Информация : Advanced Video Codec
Профиль формата : High@L3.1
Параметр CABAC формата : Да
Параметр ReFrames формата : 3 кадра
Идентификатор кодека : avc1
Идентификатор кодека/Информация : Advanced Video Coding
Продолжительность : 53 с.
Битрейт : 3995 Кбит/сек
Ширина : 1280 пикселей
Высота : 720 пикселей
Соотношение сторон : 16:9
Режим частоты кадров : Постоянный
Частота кадров : 23,976 кадра/сек
Стандарт вещания : NTSC
Цветовое пространство : YUV
Субдискретизация насыщенности : 4:2:0
Битовая глубина : 8 бит
Тип развёртки : Прогрессивная
Бит/(Пиксели*Кадры) : 0.181
Размер потока : 25,2 Мбайт (93%)
Язык : English
Дата кодирования : UTC 2013-08-09 01:42:04
Дата пометки : UTC 2013-08-09 01:42:04
Основные цвета : BT.709
Характеристики трансфера : BT.709
Коэффициенты матрицы : BT.709
Аудио
Идентификатор : 2
Формат : AAC
Формат/Информация : Advanced Audio Codec
Профиль формата : LC
Идентификатор кодека : 40
Продолжительность : 53 с.
Продолжительность оригинала : 53 с.
Вид битрейта : Переменный
Битрейт : 317 Кбит/сек
Максимальный битрейт : 447 Кбит/сек
Каналы : 2 канала
Расположение каналов : Front: L R
Частота : 48,0 КГц
Метод сжатия : С потерями
Размер потока : 2,01 Мбайт (7%)
Размер потока оригинала : 2,01 Мбайт (7%)
Язык : English
Дата кодирования : UTC 2013-08-09 01:42:04
Дата пометки : UTC 2013-08-09 01:42:04
mdhd_Duration : 53056
НЕ ЗАБЫВАЕМ ГОВОРИТЬ СПАСИБО!!

_________________
Показать сообщения:    

Текущее время: Сегодня 17:46

Часовой пояс: GMT



Вы не можете начинать темы
Вы не можете отвечать на сообщения
Вы не можете редактировать свои сообщения
Вы не можете удалять свои сообщения
Вы не можете голосовать в опросах
Вы не можете прикреплять файлы к сообщениям
Вы не можете скачивать файлы