Важное объявление!
У Нас Все раздачи мультитрекерные, при нуле пиров в релизах, можете смело вставать на закачку!
 
Автор Сообщение

HUNTER

Стаж:
4 года 7 месяцев
Сообщений:
61460

Репутация: 101

[+] [-]
Вне форума [Профиль] [ЛС]

Monster Jam 2014
Вид спорта: Monster Jam
Дата/Год выпуска: 2014
Язык комментариев: английский
Автор записи: SashaR.
Качество: DVB-S2 Remux
Формат видео: TS
Видео: AVC, 1920x1080, 16:9, 8 044 Kbps, 25 fps
Аудио: AC-3, 384 Kbps, 48.0 kHz, 2 channels

Media Info

G:\Раздачи\Monster Jam 2014\Detroit, MI + Syracuse, NY.ts
General #6
ID : 6 (0x6)
Complete name : G:\Раздачи\Monster Jam 2014\Detroit, MI + Syracuse, NY.ts
Format : MPEG-TS
File size : 4.84 GiB
Duration : 1h 14mn
Overall bit rate mode : Variable
Overall bit rate : 9 278 Kbps
Video #511
ID : 511 (0x1FF)
Menu ID : 119 (0x77)
Format : AVC
Format/Info : Advanced Video Codec
Format profile : High@L4.0
Format settings, CABAC : Yes
Format settings, ReFrames : 3 frames
Codec ID : 27
Duration : 1h 14mn
Bit rate : 8 044 Kbps
Width : 1 920 pixels
Height : 1 080 pixels
Display aspect ratio : 16:9
Frame rate : 25.000 fps
Standard : Component
Color space : YUV
Chroma subsampling : 4:2:0
Bit depth : 8 bits
Scan type : Interlaced
Scan order : Top Field First
Bits/(Pixel*Frame) : 0.155
Stream size : 4.19 GiB (87%)
Color primaries : BT.709
Transfer characteristics : BT.709
Matrix coefficients : BT.709
Audio #515
ID : 515 (0x203)
Menu ID : 119 (0x77)
Format : AC-3
Format/Info : Audio Coding 3
Mode extension : CM (complete main)
Format settings, Endianness : Big
Codec ID : 6
Duration : 1h 14mn
Bit rate mode : Constant
Bit rate : 384 Kbps
Channel count : 2 channels
Channel positions : Front: L R
Sampling rate : 48.0 KHz
Bit depth : 16 bits
Compression mode : Lossy
Delay relative to video : 32ms
Stream size : 205 MiB (4%)
Language : German
Language, more info : Clean effects
Audio #516
ID : 516 (0x204)
Menu ID : 119 (0x77)
Format : AC-3
Format/Info : Audio Coding 3
Mode extension : CM (complete main)
Format settings, Endianness : Big
Codec ID : 6
Duration : 1h 14mn
Bit rate mode : Constant
Bit rate : 384 Kbps
Channel count : 2 channels
Channel positions : Front: L R
Sampling rate : 48.0 KHz
Bit depth : 16 bits
Compression mode : Lossy
Delay relative to video : 24ms
Stream size : 205 MiB (4%)
Language : English
Language, more info : Clean effects

Скриншоты


_________________
Показать сообщения:    

Текущее время: Сегодня 01:43

Часовой пояс: GMT



Вы не можете начинать темы
Вы не можете отвечать на сообщения
Вы не можете редактировать свои сообщения
Вы не можете удалять свои сообщения
Вы не можете голосовать в опросах
Вы не можете прикреплять файлы к сообщениям
Вы не можете скачивать файлы
Наши партнеры: интернет магазин Ивановского трикотажа textilla.ru