Ивановский Торрент трекер
Яндекс.Погода
 

[Quote]
HUNTER

Монахиня-воин / Warrior Nun
«Deliver Us from Evil»
- Год выпуска: 2020
Страна: США
Жанр: фэнтези, боевик, драма
Продолжительность: 00:50:57-Перевод: Профессиональный (многоголосый закадровый) - LostFilm-Режиссёр: Саймон Бэрри, Матиас Хендл, Агнешка Смочиньска-В ролях: Альба Баптиста (Alba Baptista), Тоя Тернер (Toya Turner), Лорена Андреа (Lorena Andrea), Текла Рютен (Thekla Reuten), Тристан Ульоа (Tristán Ulloa), Жоаки де Алмейда (Joaquim de Almeida), Питер Де Джерси (Peter De Jersey), Сильвия Де Фанти (Sylvia De Fanti), Эмилио Сакрайя (Emilio Sakraya), Гийомар Алонсо (Guiomar Alonso), Мэй Симон Лифшиц (May Simón Lifschitz), Синед МакИннес (Sinead MacInnes), Мелина Мэтьюз (Melina Matthews)-Описание: Обычная девушка Эйва неожиданно для себя оказывается втянута в древнюю войну таинственного ордена с силами зла. Проснувшись в морге, она обнаруживает у себя невероятные способности. Поиск ответов приводит Эйву к ордену Крестообразного Меча — секретному обществу монахинь-воинов, поклявшихся защищать мир ото зла. Теперь она должна найти баланс между новыми обязанностями спасительницы человечества и жизнью обычного подростка.- -- -Качество: WEB-DLRip
Формат: AVI
Видео: 704x352, 23.976 fps, XviD, 1600 Kbps
Аудио 1: AC3, 48.0 KHz, 2 ch, 192 kbps [Rus]
Аудио 2: AC3, 48.0 KHz, 2 ch, 192 kbps [Eng]
Субтитры: Отсутствуют-Реклама:
[box]Отсутствует[/box]-Предыдущие и альтернативные раздачи-

MediaInfo

General
Complete name : Downloads\Warrior.Nun.S01.WEB-DL.LostFilm\Warrior.Nun.S01E01.WEB-DL.Rus.Eng.LostFilm.RGzsRutracker.avi
Format : AVI
Format/Info : Audio Video Interleave
File size : 728 MiB
Duration : 50mn 57s
Overall bit rate : 1 997 Kbps
Writing application : VirtualDubMod 1.5.10.2 (build 2542/release)
Writing library : VirtualDubMod build 2542/release
Video #0
ID : 0
Format : MPEG-4 Visual
Format profile : Advanced [email protected]
Format settings, BVOP : 1
Format settings, QPel : No
Format settings, GMC : No warppoints
Format settings, Matrix : Default (MPEG)
Codec ID : XVID
Codec ID/Hint : XviD
Duration : 50mn 57s
Bit rate : 1 598 Kbps
Width : 704 pixels
Height : 352 pixels
Display aspect ratio : 2.000
Frame rate : 23.976 fps
Color space : YUV
Chroma subsampling : 4:2:0
Bit depth : 8 bits
Scan type : Progressive
Compression mode : Lossy
Bits/(Pixel*Frame) : 0.269
Stream size : 583 MiB (80%)
Writing library : XviD 67
Audio #1
ID : 1
Format : AC-3
Format/Info : Audio Coding 3
Mode extension : CM (complete main)
Format settings, Endianness : Big
Codec ID : 2000
Duration : 50mn 57s
Bit rate mode : Constant
Bit rate : 192 Kbps
Channel(s) : 2 channels
Channel positions : Front: L R
Sampling rate : 48.0 KHz
Bit depth : 16 bits
Compression mode : Lossy
Stream size : 70.0 MiB (10%)
Alignment : Split accross interleaves
Interleave, duration : 42 ms (1.00 video frame)
Interleave, preload duration : 500 ms
Audio #2
ID : 2
Format : AC-3
Format/Info : Audio Coding 3
Mode extension : CM (complete main)
Format settings, Endianness : Big
Codec ID : 2000
Duration : 50mn 57s
Bit rate mode : Constant
Bit rate : 192 Kbps
Channel(s) : 2 channels
Channel positions : Front: L R
Sampling rate : 48.0 KHz
Bit depth : 16 bits
Compression mode : Lossy
Stream size : 70.0 MiB (10%)
Alignment : Split accross interleaves
Interleave, duration : 42 ms (1.00 video frame)
Interleave, preload duration : 500 ms

Скриншоты

Внимание! Раздача ведётся путём добавления новых серий:

(1) остановить скачивание,
(2) удалить старый торрент у себя из клиента (старые серии удалять не надо),
(3) скачать новый торрент и запустить его у себя в клиенте вместо старого, при этом указать клиенту путь в старую папку куда и должно происходить скачивание новых серий.
Ваш клиент при этом должен произвести хеширование (проверку) старой папки (если не производит сам - помогите ему сделать это), и будет докачивать только те серии которых у вас ещё нет. Старые серии при этом не удаляются, а продолжают раздаваться!
Eсли вы уже удалили старые серии, то предотвратить повторную закачку старых серий можно, отжав галочку в соответсвующих местах при запуске нового торрента. По возможности, желательно не удалять старые серии как можно дольше чтобы релизёр не столько продолжал раздавать старые серии, а смог сконцентрироваться на новых
.
Релиз группы:


Display posts:    

Current time is: 05-Aug 17:05

All times are UTC ± 0


You cannot post new topics in this forum
You cannot reply to topics in this forum
You cannot edit your posts in this forum
You cannot delete your posts in this forum
You cannot vote in polls in this forum
You cannot attach files in this forum
You cannot download files in this forum

!ATTENTION!
The site does not give electronic versions of products, and is engaged only in a collecting and cataloguing of the references sent and published at a forum by our readers. If you are the legal owner of any submitted material and do not wish that the reference to it was in our catalogue, contact us and we shall immediately remove her. Files for an exchange on tracker are given by users of a site, and the administration does not bear the responsibility for their maintenance. The request to not fill in the files protected by copyrights, and also files of the illegal maintenance!