Ивановский Торрент трекер
Яндекс.Погода
DL-List and Torrent activity
None
 
     
 
style="text-align: center"
 

[Quote]
HUNTER

Молодой мистер Линкольн / Young Mr. LincolnCriterion Collection Страна: США
Студия: Cosmopolitan Productions, Twentieth Century Fox Film Corporation
Жанр: драма, биография
Год выпуска: 1939
Продолжительность: 01:40:06
Перевод: Профессиональный (многоголосый закадровый) Светла
Субтитры: английские SDH
Оригинальная аудиодорожка: английский
Режиссер: Джон Форд / John Ford
В ролях: Генри Фонда, Элис Брэйди, Марджори Уивер, Арлин Вилан, Эдди Коллинз, Полин Мур, Ричард Кромуэлл, Дональд Мик, Джудит Дикенс, Эдди Куиллан, Спенсер Чартерс, Уорд Бонд,
Тайни Джонс, Эдди Уоллер и др.
Описание: Эта картина рассказывает о десяти годах жизни молодого Авраама Линкольна, прежде чем он стал известен американцам, а впоследствии и всему миру. Его жизнь не баловала, всего он добивался сам. Переехав из штата Кентукки в город Спрингфилд штата Иллинойс, будущий президент США, начинает свою юридическую практику.
Здесь ему предстоит выступить адвокатом невинно обвиненных молодых людей и выиграть дело в суде, перенести смерть подруги Энн, встретить свою будущую жену Мери Тодд и решиться пойти в политику, чтобы в будущем стать шестнадцатым, а по значимости и величине Первым президентом США.
-
Сэмпл IMDB Кинопоиск
-
Тип релиза: BDRemux 1080p
Контейнер: MKV
Видео: AVC / 1920x1080 / 16:9 / 23.976 fps / 35252 Kbps / High@L4.1
Аудио 1 Rus: AC3 / 48.0 KHz / 2.0 / 192 kbps / MVO / Светла
Аудио 2 Eng: FLAC / 48.0 KHz / 1.0 / 564 kbps / 24bit
Аудио 3 Eng: AC3 / 48.0 KHz / 1.0 / 192kbps / Commentary
Формат субтитров: softsub (SRT)

MediaInfo

Общее
Уникальный идентификатор : 247369828584222868458349633101450844279 (0xBA19B22E6BCAED509888AA483B1A1877)
Полное имя : E:\porvaliparus.2018\Young.Mr.Lincoln.1939.Criterion.Collection.BDRemux.1080p.mkv
Формат : Matroska
Версия формата : Version 4 / Version 2
Размер файла : 25,3 Гбайт
Продолжительность : 1 ч. 40 м.
Режим общего битрейта : Переменный
Общий поток : 36,1 Мбит/сек
Название фильма : Young.Mr.Lincoln.1939.Criterion.Collection.BDRemux.1080p-porvaliparus
Дата кодирования : UTC 2018-01-24 03:13:06
Программа кодирования : mkvmerge v20.0.0 ('I Am The Sun') 64-bit
Библиотека кодирования : libebml v1.3.5 + libmatroska v1.4.8
Видео
Идентификатор : 1
Формат : AVC
Формат/Информация : Advanced Video Codec
Профиль формата : High@L4.1
Настройки формата : CABAC / 4 Ref Frames
Параметр CABAC формата : Да
Параметр RefFrames формата : 4 кадра
Идентификатор кодека : V_MPEG4/ISO/AVC
Продолжительность : 1 ч. 40 м.
Вид битрейта : Переменный
Битрейт : 35,2 Мбит/сек
Максимальный битрейт : 37,0 Мбит/сек
Ширина : 1920 пикселей
Высота : 1080 пикселей
Соотношение сторон : 16:9
Режим частоты кадров : Постоянный
Частота кадров : 23,976 (24000/1001) кадра/сек
Цветовое пространство : YUV
Субдискретизация насыщенности : 4:2:0
Битовая глубина : 8 бит
Тип развёртки : Прогрессивная
Бит/(Пиксели*Кадры) : 0.708
Размер потока : 24,6 Гбайт (97%)
Заголовок : Young.Mr.Lincoln.1939.Criterion.Collection.BDRemux.1080p
Default : Да
Forced : Нет
Аудио #1
Идентификатор : 2
Формат : AC-3
Формат/Информация : Audio Coding 3
Идентификатор кодека : A_AC3
Продолжительность : 1 ч. 40 м.
Вид битрейта : Постоянный
Битрейт : 192 Кбит/сек
Каналы : 2 канала
Расположение каналов : Front: L R
Частота : 48,0 КГц
Частота кадров : 31,250 кадров/сек (1536 SPF)
Битовая глубина : 16 бит
Метод сжатия : С потерями
Размер потока : 138 Мбайт (1%)
Заголовок : MVO [Светла]
Язык : Russian
ServiceKind/String : Complete Main
Default : Да
Forced : Нет
Аудио #2
Идентификатор : 3
Формат : FLAC
Формат/Информация : Free Lossless Audio Codec
Идентификатор кодека : A_FLAC
Продолжительность : 1 ч. 40 м.
Вид битрейта : Переменный
Битрейт : 564 Кбит/сек
Каналы : 1 канал
Расположение каналов : Front: C
Частота : 48,0 КГц
Частота кадров : 11,719 кадров/сек (4096 SPF)
Битовая глубина : 24 бит
Размер потока : 405 Мбайт (2%)
Библиотека кодирования : libFLAC 1.2.1 (UTC 2007-09-17)
Язык : English
Default : Нет
Forced : Нет
Аудио #3
Идентификатор : 4
Формат : AC-3
Формат/Информация : Audio Coding 3
Идентификатор кодека : A_AC3
Продолжительность : 1 ч. 40 м.
Вид битрейта : Постоянный
Битрейт : 192 Кбит/сек
Каналы : 1 канал
Расположение каналов : Front: C
Частота : 48,0 КГц
Частота кадров : 31,250 кадров/сек (1536 SPF)
Битовая глубина : 16 бит
Метод сжатия : С потерями
Размер потока : 138 Мбайт (1%)
Заголовок : Commentary
Язык : English
ServiceKind/String : Complete Main
Default : Нет
Forced : Нет
Текст
Идентификатор : 5
Формат : UTF-8
Идентификатор кодека : S_TEXT/UTF8
Идентификатор кодека/Информация : UTF-8 Plain Text
Продолжительность : 1 ч. 39 м.
Битрейт : 65 бит/сек
ElementCount : 1277
Размер потока : 47,8 Кбайт (0%)
Заголовок : SDH
Язык : English
Default : Нет
Forced : Нет
Меню
00:00:00.000 : en:00:00:00.000
00:06:14.583 : en:00:06:14.583
00:10:23.373 : en:00:10:23.373
00:13:32.145 : en:00:13:32.145
00:18:25.229 : en:00:18:25.229
00:21:35.211 : en:00:21:35.211
00:26:33.759 : en:00:26:33.759
00:33:37.933 : en:00:33:37.933
00:39:31.619 : en:00:39:31.619
00:42:05.732 : en:00:42:05.732
00:47:42.443 : en:00:47:42.443
00:50:00.748 : en:00:50:00.748
00:57:17.142 : en:00:57:17.142
01:02:43.051 : en:01:02:43.051
01:06:25.481 : en:01:06:25.481
01:10:52.498 : en:01:10:52.498
01:15:49.128 : en:01:15:49.128
01:21:53.909 : en:01:21:53.909
01:24:32.985 : en:01:24:32.985
01:28:57.374 : en:01:28:57.374
01:32:01.891 : en:01:32:01.891
01:35:27.305 : en:01:35:27.305
01:36:49.637 : en:01:36:49.637

Скриншоты


BDInfo исходника

DISC INFO:
Disc Title: Young.Mr.Lincoln.1939.COMPLETE.BLURAY-COASTER
Disc Size: 48 585 398 865 bytes
Protection: AACS
BD-Java: Yes
BDInfo: 0.5.8
PLAYLIST REPORT:
Name: 00001.MPLS
Length: 1:40:14.717 (h:m:s.ms)
Size: 29 783 666 688 bytes
Total Bitrate: 39,61 Mbps
VIDEO:
Codec Bitrate Description
----- ------- -----------
MPEG-4 AVC Video 35252 kbps 1080p / 23,976 fps / 16:9 / High Profile 4.1
AUDIO:
Codec Language Bitrate Description
----- -------- ------- -----------
LPCM Audio English 1152 kbps 1.0 / 48 kHz / 1152 kbps / 24-bit
Dolby Digital Audio English 192 kbps 1.0 / 48 kHz / 192 kbps
SUBTITLES:
Codec Language Bitrate Description
----- -------- ------- -----------
Presentation Graphics English 54,891 kbps


Display posts:    

Current time is: 26-Aug 03:08

All times are UTC ± 0


You cannot post new topics in this forum
You cannot reply to topics in this forum
You cannot edit your posts in this forum
You cannot delete your posts in this forum
You cannot vote in polls in this forum
You cannot attach files in this forum
You cannot download files in this forum

!ATTENTION!
The site does not give electronic versions of products, and is engaged only in a collecting and cataloguing of the references sent and published at a forum by our readers. If you are the legal owner of any submitted material and do not wish that the reference to it was in our catalogue, contact us and we shall immediately remove her. Files for an exchange on tracker are given by users of a site, and the administration does not bear the responsibility for their maintenance. The request to not fill in the files protected by copyrights, and also files of the illegal maintenance!