Ивановский Торрент трекер
Яндекс.Погода
 

[Quote]
HUNTER

Молодой детектив Ди: Восстание морского дракона / Young Detective Dee: Rise of the Sea Dragon
Год выпуска: 2013
Страна: Китай, Гонконг (Emperor Motion Pictures, Huayi Brothers Media)
Жанр: Фэнтези, Боевик, Детектив, Приключения
Продолжительность: 02:14:01
Перевод: Любительский двухголосый закадровый (Ольга Гринтиева и Дмитрий Познанский (GREEN TEA))
Русские субтитры: нет
Режиссер на русском: Цуй Харк / Tsui Hark
В ролях: Карина Лау, Чиэнь Шэн, Марк Чао, Анджела Бейби, Кенни Лин, Ким Бом, Дун Ху, Чэнь Кунь, Шан Чжан, Гои Чен
Описание: Посреди океана огромное судно терпит крушение. Ученые не понимают, как же это могло случится, ведь в период крушения судна, не было никакого серьезного шторма или же каких-то других катаклизмов. В общем, получается, что данный случай просто невозможно объяснить. Что же все таки случилось с кораблем? Что случилось со всеми членами нашей команды? На этот сложный вопрос должен будет ответить один молодой детектив, зовут которого Ди. Для того, чтобы ответить на этот сложный и страшный вопрос, ему потребуется отправиться к месту крушения этого судна. Парень совсем не догадывается о том, что в водах океана ожило какое-то чудовище. Получается так, что это чудовище только и ждет того, чтобы на эту территорию прибыл еще один корабль. Ведь именно за счет кораблей это древнее чудовище просто питается. Чудовище сможет разрушить любой корабль...
Сэмпл: http://sendfile.su/1397834
Качество: BDrip
Контейнер: MKV
Формат 3D: OverUnder / Вертикальная стереопара
Порядок ракурсов: левый ракурс первый
Видео кодек: x264
Аудио кодек: AC3
Видео: AVC / [email protected] / 23,976 fps / 1920х2160 / 16,6 Мбит/сек
Аудио: Русский / AC3 / 48 KHz / 2.0 ch / 192 Kbps(GREEN TEA) Edit by Ash61
ВНИМАНИЕ ! На встроенных ТВ-плеерах работать не будет!!!
ТВ Samsung в названии которого есть надпись Ultra HD , и LG Ultra HD 800 серии, LG C6P, Xiaomi Mi TV 2 воспроизводят полные стереопары встроенными плеерами
Железные плееры на которых воспроизводятся полные стереопары:Popcorn C-200 , Dune HD Smart D1 , Dune HD DUO , Dune HD Smart H1 , Dune HD Smart B1 , Dune HD Max , Dune HD TV-303D , Dune HD Base 3D, Philips HMP7001, Aura HD, MECOOL BB2
Чтобы изображение было на весь экран в плеере выставляем, если рип 1920х1600 - то выставляем 2.35:1 , если 1920х2160 - то выставляем 16:9

MediaInfo

Общее
Уникальный идентификатор : 206455213727597219280305555897874102855 (0x9B51D3EC9EB81DAEADB9DEE9750FBA47)
Полное имя : E:\5555\Rip by SeRoGa00.mkv
Формат : Matroska
Версия формата : Version 2
Размер файла : 16,0 Гбайт
Продолжительность : 2 ч. 14 м.
Общий поток : 17,1 Мбит/сек
Дата кодирования : UTC 2018-02-10 05:13:09
Программа кодирования : mkvmerge v3.4.0 ('Rapunzel') сборка от May 15 2010 09:38:20
Библиотека кодирования : libebml v0.8.0 + libmatroska v0.9.0
Видео
Идентификатор : 1
Формат : AVC
Формат/Информация : Advanced Video Codec
Профиль формата : [email protected]
Параметр CABAC формата : Да
Параметр ReFrames формата : 4 кадра
Идентификатор кодека : V_MPEG4/ISO/AVC
Продолжительность : 2 ч. 14 м.
Битрейт : 16,6 Мбит/сек
Ширина : 1920 пикселей
Высота : 2160 пикселей
Соотношение сторон : 0,889
Частота кадров : 23,976 кадра/сек
Цветовое пространство : YUV
Субдискретизация насыщенности : 4:2:0
Битовая глубина : 8 бит
Тип развёртки : Прогрессивная
Бит/(Пиксели*Кадры) : 0.167
Размер потока : 15,5 Гбайт (97%)
Заголовок : Rip by SeRoGa00
Библиотека кодирования : x264 core 155 r2901 7d0ff22
Настройки программы : cabac=1 / ref=4 / deblock=1:-3:-3 / analyse=0x3:0x113 / me=umh / subme=10 / psy=1 / psy_rd=1.00:0.15 / mixed_ref=1 / me_range=24 / chroma_me=1 / trellis=2 / 8x8dct=1 / cqm=0 / deadzone=21,11 / fast_pskip=1 / chroma_qp_offset=-3 / threads=12 / lookahead_threads=6 / sliced_threads=0 / nr=0 / decimate=0 / interlaced=0 / bluray_compat=0 / constrained_intra=0 / bframes=10 / b_pyramid=2 / b_adapt=2 / b_bias=0 / direct=3 / weightb=1 / open_gop=0 / weightp=2 / keyint=250 / keyint_min=23 / scenecut=40 / intra_refresh=0 / rc_lookahead=60 / rc=crf / mbtree=1 / crf=18.0 / qcomp=0.60 / qpmin=10 / qpmax=69 / qpstep=4 / vbv_maxrate=40000 / vbv_bufsize=40000 / crf_max=0.0 / nal_hrd=none / filler=0 / ip_ratio=1.40 / aq=1:1.00
Язык : English
Default : Нет
Forced : Нет
Аудио
Идентификатор : 2
Формат : AC-3
Формат/Информация : Audio Coding 3
Расширение режима : CM (complete main)
Параметр Endianness формата : Big
Идентификатор кодека : A_AC3
Продолжительность : 2 ч. 14 м.
Вид битрейта : Постоянный
Битрейт : 192 Кбит/сек
Каналы : 2 канала
Расположение каналов : Front: L R
Частота : 48,0 КГц
Битовая глубина : 16 бит
Метод сжатия : С потерями
Размер потока : 184 Мбайт (1%)
Язык : Russian
Default : Да
Forced : Нет
Меню
00:00:00.000 : en:00:00:00.000
00:12:25.160 : en:00:12:25.160
00:22:31.098 : en:00:22:31.098
00:32:54.638 : en:00:32:54.638
00:46:11.476 : en:00:46:11.476
00:55:55.434 : en:00:55:55.434
01:06:26.148 : en:01:06:26.148
01:17:57.005 : en:01:17:57.005
01:29:28.529 : en:01:29:28.529
01:40:47.498 : en:01:40:47.498
01:51:37.564 : en:01:51:37.564
02:04:18.158 : en:02:04:18.158

Скриншоты




Display posts:    

Current time is: 04-Jul 18:42

All times are UTC ± 0


You cannot post new topics in this forum
You cannot reply to topics in this forum
You cannot edit your posts in this forum
You cannot delete your posts in this forum
You cannot vote in polls in this forum
You cannot attach files in this forum
You cannot download files in this forum

!ATTENTION!
The site does not give electronic versions of products, and is engaged only in a collecting and cataloguing of the references sent and published at a forum by our readers. If you are the legal owner of any submitted material and do not wish that the reference to it was in our catalogue, contact us and we shall immediately remove her. Files for an exchange on tracker are given by users of a site, and the administration does not bear the responsibility for their maintenance. The request to not fill in the files protected by copyrights, and also files of the illegal maintenance!