Ивановский Торрент трекер
Яндекс.Погода
DL-List and Torrent activity
Size:  14.22 GB   |    Registered:  7 months 11 days   |    Completed:  1 time
DL-List: None

Seeder not seen: Never

 
     
 
 
 

[Quote]
HUNTER

Молодая кровь / Youngblood Страна: США
Студия: Guber-Peters Company, United Artists, Blueline Productions
Жанр: Драма, мелодрама, спорт
Год выпуска: 1986
Продолжительность: 01:49:50
Перевод 1: Профессиональный (двухголосый закадровый) HTB
Перевод 2: Авторский (одноголосый закадровый) Сергей Визгунов
Субтитры: английские
Оригинальная аудиодорожка: английский
Режиссер: Питер Маркл / Peter Marklee
В ролях: Роб Лоу, Синтия Гибб, Патрик Суэйзи, Эд Лотер, Джим Янгс, Эрик Нестеренко, Джордж Дж. Финн, Фионнула Флэнаган, Кен Джеймс, Уолкер Бун, Киану Ривз, Мартин Донлеви, Гарри Шпигель, Брюс Эдвардс, Лоррэйн Формен, Катрин Брэй, Джайн Диксон, Майкл ЛеГрос, Мюррэй Эванс, Джейсон Уоррен, Уоррен Дьюкс, Сид Линес, Джэми МакАллистер, Джей Хэнкс, Фрэнк Чини, Грег Сэлтер, Чарли Васле, Рики Дэвис, Джо Бауэн, Джаап Брокер, Стив Джаннелли
Описание: Дин Янгблад хочет вырваться с фермы отца, мечтает играть в малой хоккейной лиге Канады, где хочет стать лучшим игроком. Его полуслепой брат Келли, который когда-то играл в той же команде, до того как получил травму, говорит отцу, что будет работать за двоих, чтобы Дин мог осуществить свою мечту. Отец соглашается, и Дин уезжает. Он приезжает в город невинным парнем, которого уже через неделю соблазняет его домовладелица мисс Макгилл. Над ним смеются его друзья по команде. Он влюбляется в первую же девушку, с которой ему удается познакомиться. Она оказалась дочерью тренера и ответила ему взаимностью…
Доп. информация: За синхронизацию переводов спасибо Нордер.
[box]Сэмпл[/box]
Автор: Captain Hollywood
Тип релиза: BDRemux 1080p
Контейнер: MKV
Видео: MPEG-4 AVC, 17.6 Mбит/с, 1920x1080, 23.976 кадра/с
Аудио 1: 48 kHz, AC3 Dolby Digital, 2/0 (L,R) ch, ~192 kbps | HTB
Аудио 2: 48 kHz, AC3 Dolby Digital, 2/0 (L,R) ch, ~192 kbps | Сергей Визгунов
Аудио 3: 48 kHz, AC3 Dolby Digital, 2/0 (L,R) ch, ~192 kbps | Eng
Формат субтитров: softsub (SRT)

MediaInfo

General
Unique ID : 190780546643656916928845077674599114571 (0x8F86FF2B94FD98B9BF367CC61117E74B)
Format : Matroska
Format version : Version 4 / Version 2
File size : 14.2 GiB
Duration : 1 h 49 min
Overall bit rate mode : Variable
Overall bit rate : 18.5 Mb/s
Movie name : Youngblood.1986.-=Captain Hollywood=-
Encoded date : UTC 2018-10-09 13:55:41
Writing application : mkvmerge v6.1.0 ('Old Devil') built on Mar 4 2013 09:10:42
Writing library : libebml v1.3.0 + libmatroska v1.4.0
Video
ID : 1
Format : AVC
Format/Info : Advanced Video Codec
Format profile : High@L4.1
Format settings, CABAC : Yes
Format settings, RefFrames : 4 frames
Codec ID : V_MPEG4/ISO/AVC
Duration : 1 h 49 min
Bit rate mode : Variable
Bit rate : 17.6 Mb/s
Maximum bit rate : 30.0 Mb/s
Width : 1 920 pixels
Height : 1 080 pixels
Display aspect ratio : 16:9
Frame rate mode : Constant
Frame rate : 23.976 (24000/1001) FPS
Standard : NTSC
Color space : YUV
Chroma subsampling : 4:2:0
Bit depth : 8 bits
Scan type : Progressive
Bits/(Pixel*Frame) : 0.354
Stream size : 13.5 GiB (95%)
Title : Captain Hollywood
Language : English
Default : Yes
Forced : No
Color range : Limited
Color primaries : BT.709
Transfer characteristics : BT.709
Matrix coefficients : BT.709
Audio #1
ID : 2
Format : AC-3
Format/Info : Audio Coding 3
Format settings, Endianness : Big
Codec ID : A_AC3
Duration : 1 h 49 min
Bit rate mode : Constant
Bit rate : 192 kb/s
Channel(s) : 2 channels
Channel positions : Front: L R
Sampling rate : 48.0 kHz
Frame rate : 31.250 FPS (1536 SPF)
Bit depth : 16 bits
Compression mode : Lossy
Stream size : 151 MiB (1%)
Title : DVO (HTB)
Language : Russian
Service kind : Complete Main
Default : Yes
Forced : No
Audio #2
ID : 3
Format : AC-3
Format/Info : Audio Coding 3
Format settings, Endianness : Big
Codec ID : A_AC3
Duration : 1 h 49 min
Bit rate mode : Constant
Bit rate : 192 kb/s
Channel(s) : 2 channels
Channel positions : Front: L R
Sampling rate : 48.0 kHz
Frame rate : 31.250 FPS (1536 SPF)
Bit depth : 16 bits
Compression mode : Lossy
Stream size : 151 MiB (1%)
Title : AVO (Сергей Визгунов)
Language : Russian
Service kind : Complete Main
Default : No
Forced : No
Audio #3
ID : 4
Format : AC-3
Format/Info : Audio Coding 3
Format settings, Endianness : Big
Codec ID : A_AC3
Duration : 1 h 49 min
Bit rate mode : Constant
Bit rate : 192 kb/s
Channel(s) : 2 channels
Channel positions : Front: L R
Sampling rate : 48.0 kHz
Frame rate : 31.250 FPS (1536 SPF)
Bit depth : 16 bits
Compression mode : Lossy
Stream size : 151 MiB (1%)
Language : English
Service kind : Complete Main
Default : No
Forced : No
Text
ID : 5
Format : UTF-8
Codec ID : S_TEXT/UTF8
Codec ID/Info : UTF-8 Plain Text
Language : English
Default : No
Forced : No
Menu
00:00:00.000 : en:Chapter 01
00:10:32.715 : en:Chapter 02
00:24:09.781 : en:Chapter 03
00:38:14.292 : en:Chapter 04
00:54:44.447 : en:Chapter 05
01:09:16.402 : en:Chapter 06
01:25:25.036 : en:Chapter 07
01:43:27.409 : en:Chapter 08

Скриншоты


[iv-torrents.ru].t89651.torrent
Torrent: Registered [ 2018-10-12 03:36 ] · 59ED78F4B2519F25E5F7458CB957D364F0877A38

Download .torrent

Download

36 KB

Status: checked
Completed: 1 times
Size: 14.22 GB
terms.php
Похожие темы


Display posts:    

Current time is: 23-May 23:23

All times are UTC ± 0


You cannot post new topics in this forum
You cannot reply to topics in this forum
You cannot edit your posts in this forum
You cannot delete your posts in this forum
You cannot vote in polls in this forum
You cannot attach files in this forum
You can download files in this forum

!ATTENTION!
The site does not give electronic versions of products, and is engaged only in a collecting and cataloguing of the references sent and published at a forum by our readers. If you are the legal owner of any submitted material and do not wish that the reference to it was in our catalogue, contact us and we shall immediately remove her. Files for an exchange on tracker are given by users of a site, and the administration does not bear the responsibility for their maintenance. The request to not fill in the files protected by copyrights, and also files of the illegal maintenance!