Ивановский Торрент трекер
Яндекс.Погода
Статистика раздачи
Размер:  6.37 GB   |    Зарегистрирован:  5 месяцев 13 дней   |    Скачан:  0 раз
Сидов:  17  [  0 KB/s  ]   Личеров:  1  [  0 KB/s  ]   Подробная статистика пиров
 
     
 
 

[Цитировать]
HUNTER

Мой парень – киллер / Мистер Правильный / Mr. Right- Страна: США
Жанр: боевик, мелодрама, комедия
Год выпуска: 2015
Продолжительность: 01:35:29
Перевод 1: Профессиональный (дублированный) iTunes
Перевод 2: Одноголосый закадровый М. Чадов
Перевод 3: Любительский (многоголосый закадровый) RecentFilms
Субтитры: русские, английские
Оригинальная аудиодорожка: английский-Режиссер: Пако Кабесас / Paco Cabezas
В ролях: Сэм Рокуэлл, Анна Кендрик, Тим Рот, Джеймс Рэнсон, Энсон Маунт, Майкл Эклунд, RZA, Кэти Нехра, Джейден Кейн, Дуглас М. Гриффин-Описание: Марта застала своего парня за изменой и немного вышла из колеи. И тут она встречает, казалось бы, идеального мужчину. Но её идеал оказывается бывшим киллером, и его прошлое однажды вновь заявляет о себе, причем не самым приятным образом. И едва зародившиеся отношения начинают подвергаться серьёзным испытаниям.-

Внимание! Присутствует ненормативная лексика!
в дорожке №2-Тип релиза: BDRip 720p
Контейнер: MKV
Видео: x.264, 1280x536, 5528 kbps, 23.976 fps
Аудио 1: AC3, 384 kbps, 5.1 channels, 48000 Hz - iTunes
Аудио 2: DTS, 1509 kbps, 5.1 channels, 48000 Hz - VO (М.Чадов)
Аудио 3: AC3, 640 kbps, 5.1 channels, 48000 Hz - RecentFilms
Аудио 4: DTS, 1509 kbps, 5.1 channels, 48000 Hz - ENG (Original)
Формат субтитров: SRT - русские (форсированные, полные), английские (полные, SDH)-

MediaInfo

Format : Matroska
Format version : Version 2
File size : 6.37 GiB
Duration : 1 h 35 min
Overall bit rate : 9 554 kb/s
Movie name : Мой парень – киллер / Мистер Правильный / Mr. Right (2015) BDRip 720p
Encoded date : UTC 2017-09-17 10:50:25
Writing application : mkvmerge v8.3.0 ('Over the Horizon') 32bit
Writing library : libebml v1.3.1 + libmatroska v1.4.2
Cover : Yes
Attachments : cover.png
Video
ID : 1
Format : AVC
Format/Info : Advanced Video Codec
Format profile : High@L4.1
Format settings : CABAC / 12 Ref Frames
Format settings, CABAC : Yes
Format settings, RefFrames : 12 frames
Codec ID : V_MPEG4/ISO/AVC
Duration : 1 h 35 min
Bit rate : 5 528 kb/s
Width : 1 280 pixels
Height : 536 pixels
Display aspect ratio : 2.40:1
Frame rate mode : Constant
Frame rate : 23.976 (24000/1001) FPS
Color space : YUV
Chroma subsampling : 4:2:0
Bit depth : 8 bits
Scan type : Progressive
Bits/(Pixel*Frame) : 0.336
Stream size : 3.55 GiB (56%)
Title : Мой парень – киллер / Мистер Правильный / Mr. Right (2015) BDRip 720p
Writing library : x264 core 152 r2851 ba24899
Encoding settings : cabac=1 / ref=12 / deblock=1:-3:-3 / analyse=0x3:0x133 / me=umh / subme=10 / psy=1 / psy_rd=1.05:0.15 / mixed_ref=1 / me_range=32 / chroma_me=1 / trellis=2 / 8x8dct=1 / cqm=0 / deadzone=21,11 / fast_pskip=0 / chroma_qp_offset=-3 / threads=6 / lookahead_threads=1 / sliced_threads=0 / nr=0 / decimate=1 / interlaced=0 / bluray_compat=0 / constrained_intra=0 / bframes=12 / b_pyramid=2 / b_adapt=2 / b_bias=0 / direct=3 / weightb=1 / open_gop=0 / weightp=2 / keyint=240 / keyint_min=23 / scenecut=40 / intra_refresh=0 / rc_lookahead=60 / rc=2pass / mbtree=0 / bitrate=5528 / ratetol=1.0 / qcomp=0.60 / qpmin=0 / qpmax=69 / qpstep=4 / cplxblur=20.0 / qblur=0.5 / vbv_maxrate=20000 / vbv_bufsize=25000 / nal_hrd=none / filler=0 / ip_ratio=1.40 / pb_ratio=1.30 / aq=3:0.80
Language : English
Default : Yes
Forced : No
Audio #1
ID : 2
Format : AC-3
Format/Info : Audio Coding 3
Codec ID : A_AC3
Duration : 1 h 35 min
Bit rate mode : Constant
Bit rate : 384 kb/s
Channel(s) : 6 channels
Channel positions : Front: L C R, Side: L R, LFE
Sampling rate : 48.0 kHz
Frame rate : 31.250 FPS (1536 SPF)
Bit depth : 16 bits
Compression mode : Lossy
Stream size : 262 MiB (4%)
Title : Dub - iTunes
Language : Russian
Service kind : Complete Main
Default : Yes
Forced : No
Audio #2
ID : 3
Format : DTS
Format/Info : Digital Theater Systems
Codec ID : A_DTS
Duration : 1 h 35 min
Bit rate mode : Constant
Bit rate : 1 509 kb/s
Channel(s) : 6 channels
Channel positions : Front: L C R, Side: L R, LFE
Sampling rate : 48.0 kHz
Frame rate : 93.750 FPS (512 SPF)
Bit depth : 24 bits
Compression mode : Lossy
Stream size : 1.01 GiB (16%)
Title : VO - Chadov M. (uncensored)
Language : Russian
Default : No
Forced : No
Audio #3
ID : 4
Format : AC-3
Format/Info : Audio Coding 3
Codec ID : A_AC3
Duration : 1 h 35 min
Bit rate mode : Constant
Bit rate : 640 kb/s
Channel(s) : 6 channels
Channel positions : Front: L C R, Side: L R, LFE
Sampling rate : 48.0 kHz
Frame rate : 31.250 FPS (1536 SPF)
Bit depth : 16 bits
Compression mode : Lossy
Stream size : 437 MiB (7%)
Title : MVO - RecentFilms
Language : Russian
Service kind : Complete Main
Default : No
Forced : No
Audio #4
ID : 5
Format : DTS
Format/Info : Digital Theater Systems
Codec ID : A_DTS
Duration : 1 h 35 min
Bit rate mode : Constant
Bit rate : 1 509 kb/s
Channel(s) : 6 channels
Channel positions : Front: L C R, Side: L R, LFE
Sampling rate : 48.0 kHz
Frame rate : 93.750 FPS (512 SPF)
Bit depth : 24 bits
Compression mode : Lossy
Stream size : 1.01 GiB (16%)
Title : Original
Language : English
Default : No
Forced : No
Text #1
ID : 6
Format : UTF-8
Codec ID : S_TEXT/UTF8
Codec ID/Info : UTF-8 Plain Text
Title : Forced Songs
Language : Russian
Default : Yes
Forced : No
Text #2
ID : 7
Format : UTF-8
Codec ID : S_TEXT/UTF8
Codec ID/Info : UTF-8 Plain Text
Title : Full (uncensored)
Language : Russian
Default : No
Forced : No
Text #3
ID : 8
Format : UTF-8
Codec ID : S_TEXT/UTF8
Codec ID/Info : UTF-8 Plain Text
Title : Full
Language : English
Default : No
Forced : No
Text #4
ID : 9
Format : UTF-8
Codec ID : S_TEXT/UTF8
Codec ID/Info : UTF-8 Plain Text
Title : SDH
Language : English
Default : No
Forced : No
Menu
00:00:00.000 : en:Chapter 01
00:04:37.860 : en:Chapter 02
00:08:25.713 : en:Chapter 03
00:11:40.741 : en:Chapter 04
00:15:48.906 : en:Chapter 05
00:18:59.638 : en:Chapter 06
00:23:35.247 : en:Chapter 07
00:27:29.481 : en:Chapter 08
00:33:51.446 : en:Chapter 09
00:39:11.766 : en:Chapter 10
00:43:59.970 : en:Chapter 11
00:46:09.349 : en:Chapter 12
00:51:56.530 : en:Chapter 13
00:56:39.604 : en:Chapter 14
00:59:27.814 : en:Chapter 15
01:04:24.694 : en:Chapter 16
01:10:16.629 : en:Chapter 17
01:16:40.762 : en:Chapter 18
01:22:23.813 : en:Chapter 19
01:28:02.819 : en:Chapter 20

Скриншоты

x.264.log

x264 iNFO
x264 [info]: frame I:1334 Avg QP:13.57 size:144278
x264 [info]: frame P:34132 Avg QP:15.65 size: 50976
x264 [info]: frame B:101901 Avg QP:16.97 size: 19744
x264 [info]: consecutive B-frames: 3.9% 3.9% 12.0% 28.1% 17.6% 26.0% 4.1% 1.4% 0.9% 0.5% 0.4% 0.5% 0.7%
Bluray ----------------------------- BDRip



Примечания

к дорожке № 2 в озвучке Чадова

скрытый текст

Цитата:Перевёл Переводман, озвучил М.Чадов. Релиз доступен благодаря 6yxaHbl4
Описание:
Незаслуженно обойдённая вниманием шедеврально-шпионо-парадийно-ненормативно-романтичная комедия Mr.Right, прозванная в прокате какими-то наркоманами "Мой парень - киллер". На самом деле, фильм называется "Мистер Правильный". Он потому правильный, что всё время в фильме говорит "правильно", забавно и не всегда к месту. Ну и сам по себе он правильный, теперь и в правильном переводе, правильно? Правильно! Несколько правильных пояснений...
  • В фильме постоянно мелькают выражения "that guy , the guy / тот парень, этот парень", а также всякие другие парни к месту и нет. Это пародируются фильмы про супер-шпиёнов
  • Фистинг - дословно "кулачинг". Это когда в разные интересные места засовывают всю руку сразу...
  • Пина Колада - ром с кокосовым молоком и ананасовым соком
  • Гамбо - суп-рагу
  • Человек Дождя - фильм. Имеется в виду, что Клоун - аутист
  • На 26 минуте мелькает кафе "Резервуар". Прямая отсылка к Reservoir Dogs в котором поучаствовал бедолага Тим Рот
  • Тундра в Сербии - это не ошибка перевода...
  • Серпико - фильм 1973 года
  • Элмер Фадж - заклятый враг мультяшного Багза Банни с ружьём
  • Зелёный Гоблин - вероятно цитата из самого мультика
  • Стокгольмский синдром - когда жертва оправдывает своего похитителя и, очевидно, альбом с одноимённой песней группы Muse
  • Двойное имя - в оригинале второе имя. В странах запада люди имеют по два личных имени.
  • Имя, знакомое с 1935 года - имеется в виду Агата Кристи
  • СДВГ - синдром дефицита внимания с гиперактивностью
  • Халапеньо - зелёный перец чили
    Фильм безумно романтичный, можно смотреть с девушкой, если у неё не завянут уши. Не матерится в фильме только кот Ганнибал)) и то, потому что ссыт...
  • [iv-torrents.ru].t82648.torrent
    Торрент: Зарегистрирован [ 2018-08-05 17:06 ] · 795C3A1C9AF212E2BD026BD4817C3974A6D90FCD

    Скачать .torrent

    Скачать

    32 KB

    Статус: проверено
    Скачан: 0 раз
    Размер: 6.37 GB
    terms.php


    Показать сообщения:    

    Текущее время: 19-Янв 10:09

    Часовой пояс: UTC ± 0


    Вы не можете начинать темы
    Вы не можете отвечать на сообщения
    Вы не можете редактировать свои сообщения
    Вы не можете удалять свои сообщения
    Вы не можете голосовать в опросах
    Вы не можете прикреплять файлы к сообщениям
    Вы можете скачивать файлы

    !ВНИМАНИЕ!
    Сайт не предоставляет электронные версии произведений, а занимается лишь коллекционированием и каталогизацией ссылок, присылаемых и публикуемых на форуме нашими читателями. Если вы являетесь правообладателем какого-либо представленного материала и не желаете, чтобы ссылка на него находилась в нашем каталоге, свяжитесь с нами, и мы незамедлительно удалим ее. Файлы для обмена на трекере предоставлены пользователями сайта, и администрация не несет ответственности за их содержание. Просьба не заливать файлы, защищенные авторскими правами, а также файлы нелегального содержания!