Ивановский Торрент трекер
Яндекс.Погода
 

[Цитировать]
HUNTER

Мой маленький пони. Лучший подарок на свете / My Little Pony: Best Gift Ever Страна: США, Канада
Жанр: Приключения, семейный, фэнтези, мультфильм
Продолжительность: 00:44:09
Год выпуска: 2018
Перевод 1: Одноголосый закадровый (ALEKS KV)
Перевод 2: Одноголосый закадровый (Merger Brony)
Русские субтитры: есть
Режиссер: Джим Миллер / Jim Miller, Майк Майер / Mike Myhre
Роли озвучивали: Тара Стронг, Эшли Болл, Андреа Либман, Кэти Уэслак, Табита Сен-Жермен, Джон де Ланси и другие
Описание: Пони готовятся к новому Дню Согревающего Очага, их семьи собираются вместе, чтобы отметить этот большой праздник. Семейство Пай прибывает в Понивилль и Пинки Пай, Флаттершай, Эпплджек, Рэрити и Рэйнбоу Дэш готовы к большому дню: но у принцессы Твайлайт Спаркл совсем нет времени на празднование! Из-за дел в школе и визита Шайнин Армора вместе с Кейденс и малышкой Фларри Харт Твайлайт начинает сильно отставать от намеченного списка дел. Она даже не успела сходить за покупками! К счастью, ее друзья готовы помочь!
Предыдущие и альтернативные раздачи
Рейтинг:
Качество: WEB-DL 720p (YP-7R-00x66)
Формат: MKV
Видео: AVC, 1280x720 (16:9), 23.976 fps, ~3991 kbps
Аудио 1 Rus: AC3, 48 kHz, 6 ch, 384 kbps (ALEKS KV)
Аудио 2 Rus: AC3, 48 kHz, 2 ch, 192 kbps (Merger Brony)
Аудио 3 Eng: AC3, 48 kHz, 6 ch, 384 kbps (Original)
Субтитры 1 Rus: (Anon2Anon)
Субтитры 2 Rus: (TheDoctor Team)
Субтитры 3 Eng: (Anon2Anon)

Скриншоты

Дополнительная информация

Внимание, данная раздача содержит эксклюзивный контент от M-KV2501. Использовать контент без баннера группы: и указания первоначального источника - ЗАПРЕЩЕНО!

Подробные технические данные

Общее
Уникальный идентификатор : 187004372218956309561391011085990803903 (0x8CAFBB65953AABDA884B168A28FCB9BF)
Полное имя : D:\Video\Mults\mlp.best.gift.ever.2018.web-dl.720p.mkv
Формат : Matroska
Версия формата : Version 4 / Version 2
Размер файла : 1,53 Гбайт
Продолжительность : 44 м. 9 с.
Общий поток : 4955 Кбит/сек
Дата кодирования : UTC 2018-11-06 19:35:17
Программа кодирования : mkvmerge v23.0.0 ('The Bride Said No') 64-bit
Библиотека кодирования : libebml v1.3.6 + libmatroska v1.4.9
Видео
Идентификатор : 1
Формат : AVC
Формат/Информация : Advanced Video Codec
Профиль формата : High@L3.1
Настройки формата : 2 Ref Frames
Параметр CABAC формата : Нет
Параметр RefFrames формата : 2 кадра
Идентификатор кодека : V_MPEG4/ISO/AVC
Продолжительность : 44 м. 9 с.
Битрейт : 3991 Кбит/сек
Ширина : 1280 пикселей
Высота : 720 пикселей
Соотношение сторон : 16:9
Режим частоты кадров : Постоянный
Частота кадров : 23,976 (24000/1001) кадра/сек
Цветовое пространство : YUV
Субдискретизация насыщенности : 4:2:0
Битовая глубина : 8 бит
Тип развёртки : Прогрессивная
Бит/(Пиксели*Кадры) : 0.181
Размер потока : 1,23 Гбайт (81%)
Язык : English
Default : Да
Forced : Нет
Цветовой диапазон : Limited
Основные цвета : BT.709
Характеристики трансфера : BT.709
Коэффициенты матрицы : BT.709
Аудио #1
Идентификатор : 2
Формат : AC-3
Формат/Информация : Audio Coding 3
Параметр Endianness формата : Big
Идентификатор кодека : A_AC3
Продолжительность : 44 м. 9 с.
Вид битрейта : Постоянный
Битрейт : 384 Кбит/сек
Каналы : 6 каналов
Расположение каналов : Front: L C R, Side: L R, LFE
Частота : 48,0 КГц
Частота кадров : 31,250 кадров/сек (1536 SPF)
Битовая глубина : 16 бит
Метод сжатия : С потерями
Размер потока : 121 Мбайт (8%)
Заголовок : ALEKS KV
Язык : Russian
ServiceKind/String : Complete Main
Default : Да
Forced : Нет
Аудио #2
Идентификатор : 3
Формат : AC-3
Формат/Информация : Audio Coding 3
Параметр Endianness формата : Big
Идентификатор кодека : A_AC3
Продолжительность : 44 м. 9 с.
Вид битрейта : Постоянный
Битрейт : 192 Кбит/сек
Каналы : 2 канала
Расположение каналов : Front: L R
Частота : 48,0 КГц
Частота кадров : 31,250 кадров/сек (1536 SPF)
Битовая глубина : 16 бит
Метод сжатия : С потерями
Размер потока : 60,6 Мбайт (4%)
Заголовок : Merger Brony
Язык : Russian
ServiceKind/String : Complete Main
Default : Нет
Forced : Нет
Аудио #3
Идентификатор : 4
Формат : AC-3
Формат/Информация : Audio Coding 3
Параметр Endianness формата : Big
Идентификатор кодека : A_AC3
Продолжительность : 44 м. 9 с.
Вид битрейта : Постоянный
Битрейт : 384 Кбит/сек
Каналы : 6 каналов
Расположение каналов : Front: L C R, Side: L R, LFE
Частота : 48,0 КГц
Частота кадров : 31,250 кадров/сек (1536 SPF)
Битовая глубина : 16 бит
Метод сжатия : С потерями
Размер потока : 121 Мбайт (8%)
Заголовок : Original
Язык : English
ServiceKind/String : Complete Main
Default : Нет
Forced : Нет
Текст #1
Идентификатор : 5
Формат : ASS
Идентификатор кодека : S_TEXT/ASS
Идентификатор кодека/Информация : Advanced Sub Station Alpha
Продолжительность : 43 м. 37 с.
Битрейт : 212 бит/сек
ElementCount : 883
Метод сжатия : Без потерь
Размер потока : 68,0 Кбайт (0%)
Заголовок : Anon2Anon
Язык : Russian
Default : Нет
Forced : Нет
Текст #2
Идентификатор : 6
Формат : ASS
Идентификатор кодека : S_TEXT/ASS
Идентификатор кодека/Информация : Advanced Sub Station Alpha
Продолжительность : 43 м. 41 с.
Битрейт : 235 бит/сек
ElementCount : 769
Метод сжатия : Без потерь
Размер потока : 75,4 Кбайт (0%)
Заголовок : TheDoctor Team
Язык : Russian
Default : Нет
Forced : Нет
Текст #3
Идентификатор : 7
Формат : ASS
Идентификатор кодека : S_TEXT/ASS
Идентификатор кодека/Информация : Advanced Sub Station Alpha
Продолжительность : 43 м. 37 с.
Битрейт : 144 бит/сек
ElementCount : 882
Метод сжатия : Без потерь
Размер потока : 46,1 Кбайт (0%)
Заголовок : Anon2Anon
Язык : English
Default : Нет
Forced : Нет


Показать сообщения:    

Текущее время: 20-Ноя 13:56

Часовой пояс: UTC ± 0


Вы не можете начинать темы
Вы не можете отвечать на сообщения
Вы не можете редактировать свои сообщения
Вы не можете удалять свои сообщения
Вы не можете голосовать в опросах
Вы не можете прикреплять файлы к сообщениям
Вы не можете скачивать файлы

!ВНИМАНИЕ!
Сайт не предоставляет электронные версии произведений, а занимается лишь коллекционированием и каталогизацией ссылок, присылаемых и публикуемых на форуме нашими читателями. Если вы являетесь правообладателем какого-либо представленного материала и не желаете, чтобы ссылка на него находилась в нашем каталоге, свяжитесь с нами, и мы незамедлительно удалим ее. Файлы для обмена на трекере предоставлены пользователями сайта, и администрация не несет ответственности за их содержание. Просьба не заливать файлы, защищенные авторскими правами, а также файлы нелегального содержания!