Ивановский Торрент трекер
Яндекс.Погода
 

[Цитировать]
HUNTER

Моана / Moana«The ocean is calling»- Страна: США
Студии: Walt Disney Pictures, Walt Disney Animation Studios
Жанр: Мультфильм, мюзикл, фэнтези, комедия, приключения, семейный
Год выпуска: 2016-Дата мировой премьеры: 14 ноября 2016
Дата российской премьеры: 1 декабря 2016, «WDSSPR»-Продолжительность: 01:42:49
Перевод: Профессиональный (дублированный) [Лицензия]
Субтитры: Английские, русские
Оригинальная аудиодорожка: Английская-Режиссер: Рон Клементс, Джон Маскер, Дон Холл / Ron Clements, John Musker, Don Hall
Продюсеры: Nicole P. Hearon, Джон Лассетер, Оснат Шурер
Роли озвучивали: Аулии Кравалхо, Дуэйн Джонсон, Рэйчел Хаус, Темуэра Моррисон, Джемейн Клемент, Николь Шерзингер, Алан Тьюдик, Оскар Кайтли, Трой Поламалу, Пуанани Кравальо-Описание:
Бесстрашная Моана, дочь вождя маленького племени на острове в Тихом океане, больше всего на свете мечтает о приключениях и решает отправиться в опасное морское путешествие. Вместе с некогда могущественным полубогом Мауи им предстоит пересечь океан, сразиться со страшными чудовищами и разрушить древнее заклятие.
Доп. материалы: Короткометражка "Путь к сердцу", Песня "How Far I'll Go" в исполнении Алессии Кара, Аудиокомментарий- -Качество: DVD9 R5
Формат: DVD-Video
Видео: MPEG-2, 720x576@1024x576 (PAL 16:9), ~7100 Кбит/сек
Аудио 1: AC3 5.1, 384 Кбит/сек [Английский - оригинал]
Аудио 2: AC3 2.0, 192 Кбит/сек [Английский - описательный]
Аудио 3: AC3 5.1, 384 Кбит/сек [Русский - дублированный]
Аудио 4: AC3 5.1, 384 Кбит/сек [Казахский - дублированный]

DVDInfo

Title: Moana (2016) DVD9 R5
Size: 6.97 Gb ( 7 306 376 KBytes ) - DVD-9
Enabled regions: 1, 2, 3, 4, 5, 6, 7, 8
VTS_01 :
Play Length:
Video: PAL 16:9 (720x576) VBR, Auto Letterboxed
Audio:
Not specified (Dolby AC3, 2 ch)
Not specified (Dolby AC3, 2 ch)
Not specified (Dolby AC3, 2 ch)
Not specified (Dolby AC3, 2 ch)
Not specified (Dolby AC3, 2 ch)
Not specified (Dolby AC3, 2 ch)
Not specified (Dolby AC3, 2 ch)
Not specified (Dolby AC3, 2 ch)
Subtitles:
Not specified
Not specified
Not specified
Not specified
Not specified
Not specified
Not specified
Not specified
Not specified
Not specified
Not specified
Not specified
VTS_02 :
Play Length: 00:00:13
Video: PAL 16:9 (720x576) VBR, Auto Pan&Scan
Audio:
English (Dolby AC3, 6 ch)
VTS_03 :
Play Length: 00:00:05
Video: PAL 16:9 (720x576) VBR, Auto Letterboxed
VTS_04 :
Play Length: 00:00:16+00:00:15
Video: PAL 16:9 (720x576) VBR, Auto Letterboxed
Audio:
English (Dolby AC3, 2 ch)
Subtitles:
Not specified
VTS_05 :
Play Length: 00:00:48
Video: PAL 16:9 (720x576) VBR, Auto Pan&Scan
Audio:
English (Dolby AC3, 2 ch)
Subtitles:
English
Russian
VTS_06 :
Play Length: 00:06:11
Video: PAL 16:9 (720x576) VBR, Auto Pan&Scan
Audio:
English (Dolby AC3, 6 ch)
English (Dolby AC3, 2 ch)
Subtitles:
English
Russian
VTS_07 :
Play Length: 01:42:49
Video: PAL 16:9 (720x576) VBR, Auto Pan&Scan
Audio:
English (Dolby AC3, 6 ch)
English (Dolby AC3, 2 ch)
Russian (Dolby AC3, 6 ch)
Kazakh (Dolby AC3, 6 ch)
English (Dolby AC3, 2 ch)
Subtitles:
English
Russian
English
Russian
Russian
VTS_08 :
Play Length: 00:02:59
Video: PAL 16:9 (720x576) VBR, Auto Pan&Scan
Audio:
English (Dolby AC3, 2 ch)
VTS_09 :
Play Length:
Video: PAL 16:9 (720x576) VBR, Auto Pan&Scan
VTS_10 :
Play Length:
Video: PAL 16:9 (720x576) VBR, Auto Pan&Scan
VTS_11 :
Play Length: 00:00:40
Video: PAL 16:9 (720x576) VBR, Auto Letterboxed
Menu Video:
PAL 16:9 (720x576) VBR
Auto Letterboxed
Menu Audio:
Not specified (Dolby AC3, 2 ch)
Menu Subtitles:
Not specified
Menu English Language Unit :
Root Menu
Audio Menu
Angle menu
Chapter (PTT) Menu

MediaInfo

Общее
Полное имя : G:\Torrents\Moana (2016) DVD9 R5\VIDEO_TS\VTS_07_5.VOB
Формат : MPEG-PS
Размер файла : 1024 Мбайт
Продолжительность : 16 м. 13 с.
Режим общего битрейта : Переменный
Общий поток : 8828 Кбит/сек
Видео
Идентификатор : 224 (0xE0)
Формат : MPEG Video
Версия формата : Version 2
Профиль формата : Main@Main
Настройки формата : CustomMatrix / BVOP
Параметр BVOP формата : Да
Параметр матрицы формата : Выборочная
Параметр GOP формата : Variable
Продолжительность : 16 м. 12 с.
Вид битрейта : Переменный
Битрейт : 7116 Кбит/сек
Максимальный битрейт : 9800 Кбит/сек
Ширина : 720 пикселей
Высота : 576 пикселей
Соотношение сторон : 16:9
Частота кадров : 25,000 кадров/сек
Стандарт вещания : Component
Цветовое пространство : YUV
Субдискретизация насыщенности : 4:2:0
Битовая глубина : 8 бит
Тип развёртки : Прогрессивная
Порядок развёртки : Верхнее поле первое
Метод сжатия : С потерями
Бит/(Пиксели*Кадры) : 0.686
Временной код первого кадра : 02:06:43:10
Оригинал временного кода : Group of pictures header
Размер потока : 825 Мбайт (81%)
Основные цвета : BT.601 PAL
Характеристики трансфера : BT.470 System B, BT.470 System G
Коэффициенты матрицы : BT.470 System B, BT.470 System G
Аудио #1
Идентификатор : 189 (0xBD)-128 (0x80)
Формат : AC-3
Формат/Информация : Audio Coding 3
Параметр Endianness формата : Big
Режим смешивания : DVD-Video
Продолжительность : 16 м. 13 с.
Вид битрейта : Постоянный
Битрейт : 384 Кбит/сек
Каналы : 6 каналов
Расположение каналов : Front: L C R, Side: L R, LFE
Частота : 48,0 КГц
Частота кадров : 31,250 кадров/сек (1536 SPF)
Битовая глубина : 16 бит
Метод сжатия : С потерями
Задержка видео : -448 мс.
Размер потока : 44,5 Мбайт (4%)
ServiceKind/String : Complete Main
Аудио #2
Идентификатор : 189 (0xBD)-129 (0x81)
Формат : AC-3
Формат/Информация : Audio Coding 3
Параметр Endianness формата : Big
Режим смешивания : DVD-Video
Продолжительность : 16 м. 13 с.
Вид битрейта : Постоянный
Битрейт : 192 Кбит/сек
Каналы : 2 канала
Расположение каналов : Front: L R
Частота : 48,0 КГц
Частота кадров : 31,250 кадров/сек (1536 SPF)
Битовая глубина : 16 бит
Метод сжатия : С потерями
Задержка видео : -448 мс.
Размер потока : 22,3 Мбайт (2%)
ServiceKind/String : Complete Main
Аудио #3
Идентификатор : 189 (0xBD)-130 (0x82)
Формат : AC-3
Формат/Информация : Audio Coding 3
Параметр Endianness формата : Big
Режим смешивания : DVD-Video
Продолжительность : 16 м. 13 с.
Вид битрейта : Постоянный
Битрейт : 384 Кбит/сек
Каналы : 6 каналов
Расположение каналов : Front: L C R, Side: L R, LFE
Частота : 48,0 КГц
Частота кадров : 31,250 кадров/сек (1536 SPF)
Битовая глубина : 16 бит
Метод сжатия : С потерями
Задержка видео : -480 мс.
Размер потока : 44,5 Мбайт (4%)
ServiceKind/String : Complete Main
Аудио #4
Идентификатор : 189 (0xBD)-131 (0x83)
Формат : AC-3
Формат/Информация : Audio Coding 3
Параметр Endianness формата : Big
Режим смешивания : DVD-Video
Продолжительность : 16 м. 13 с.
Вид битрейта : Постоянный
Битрейт : 384 Кбит/сек
Каналы : 6 каналов
Расположение каналов : Front: L C R, Side: L R, LFE
Частота : 48,0 КГц
Частота кадров : 31,250 кадров/сек (1536 SPF)
Битовая глубина : 16 бит
Метод сжатия : С потерями
Задержка видео : -480 мс.
Размер потока : 44,5 Мбайт (4%)
ServiceKind/String : Complete Main
Аудио #5
Идентификатор : 189 (0xBD)-132 (0x84)
Формат : AC-3
Формат/Информация : Audio Coding 3
Параметр Endianness формата : Big
Режим смешивания : DVD-Video
Продолжительность : 16 м. 13 с.
Вид битрейта : Постоянный
Битрейт : 192 Кбит/сек
Каналы : 2 канала
Расположение каналов : Front: L R
Частота : 48,0 КГц
Частота кадров : 31,250 кадров/сек (1536 SPF)
Битовая глубина : 16 бит
Метод сжатия : С потерями
Задержка видео : -448 мс.
Размер потока : 22,3 Мбайт (2%)
ServiceKind/String : Complete Main
Текст #1
Идентификатор : 189 (0xBD)-32 (0x20)
Формат : RLE
Формат/Информация : Run-length encoding
Режим смешивания : DVD-Video
Продолжительность : 16 м. 10 с.
Задержка видео : 1 с. 200 мс.
Текст #2
Идентификатор : 189 (0xBD)-33 (0x21)
Формат : RLE
Формат/Информация : Run-length encoding
Режим смешивания : DVD-Video
Продолжительность : 16 м. 10 с.
Задержка видео : 1 с. 200 мс.
Текст #3
Идентификатор : 189 (0xBD)-34 (0x22)
Формат : RLE
Формат/Информация : Run-length encoding
Режим смешивания : DVD-Video
Продолжительность : 16 м. 10 с.
Задержка видео : 1 с. 200 мс.
Текст #4
Идентификатор : 189 (0xBD)-35 (0x23)
Формат : RLE
Формат/Информация : Run-length encoding
Режим смешивания : DVD-Video
Продолжительность : 16 м. 10 с.
Задержка видео : 1 с. 200 мс.
Текст #5
Идентификатор : 189 (0xBD)-36 (0x24)
Формат : RLE
Формат/Информация : Run-length encoding
Режим смешивания : DVD-Video
Продолжительность : 16 м. 12 с.
Задержка видео : 1 с. 0 мс.
Текст #6
Идентификатор : 189 (0xBD)-37 (0x25)
Формат : RLE
Формат/Информация : Run-length encoding
Режим смешивания : DVD-Video
Продолжительность : 16 м. 12 с.
Задержка видео : 1 с. 0 мс.
Текст #7
Идентификатор : 189 (0xBD)-38 (0x26)
Формат : RLE
Формат/Информация : Run-length encoding
Режим смешивания : DVD-Video
Продолжительность : 16 м. 12 с.
Задержка видео : 1 с. 0 мс.
Текст #8
Идентификатор : 189 (0xBD)-39 (0x27)
Формат : RLE
Формат/Информация : Run-length encoding
Режим смешивания : DVD-Video
Продолжительность : 16 м. 12 с.
Задержка видео : 1 с. 0 мс.
Меню
-

Скриншоты меню

Скриншоты фильма

-За предоставленный DVD спасибо большое AKIM2B-Раздаю с 10:00 до 23:00 до 10 скачавших.


Показать сообщения:    

Текущее время: 15-Ноя 19:00

Часовой пояс: UTC ± 0


Вы не можете начинать темы
Вы не можете отвечать на сообщения
Вы не можете редактировать свои сообщения
Вы не можете удалять свои сообщения
Вы не можете голосовать в опросах
Вы не можете прикреплять файлы к сообщениям
Вы не можете скачивать файлы

!ВНИМАНИЕ!
Сайт не предоставляет электронные версии произведений, а занимается лишь коллекционированием и каталогизацией ссылок, присылаемых и публикуемых на форуме нашими читателями. Если вы являетесь правообладателем какого-либо представленного материала и не желаете, чтобы ссылка на него находилась в нашем каталоге, свяжитесь с нами, и мы незамедлительно удалим ее. Файлы для обмена на трекере предоставлены пользователями сайта, и администрация не несет ответственности за их содержание. Просьба не заливать файлы, защищенные авторскими правами, а также файлы нелегального содержания!