Ивановский Торрент трекер
Яндекс.Погода
DL-List and Torrent activity
None
 
     
 
 

[Quote]
HUNTER

Минифорс. Новые герои / MINIFORCE: New Heroes
Страна: Южная Корея
Жанр: Мультфильм
Продолжительность: 1:05:40
Год выпуска: 2016
Перевод: Профессиональный (дублированный)
Русские субтитры: нет
Режиссёр: Ли Ён-джун / Lee Yeong-joon
Описание: Приквел популярного сериала, повествующий о создании суперкоманды Минифорс. Члены команды – очаровательные зверушки-пушистики, но за их милой внешностью скрываются настоящие отважные воины. Доктор Джереми из лаборатории Минифорс исследует «эллиниум» – неизвестное вещество, содержащее могучую силу. Зевс, капитан Армии Ящериц, рассматривает эллиниум с целью создания смертоносного оружия против человечества. Однажды он атакует лабораторию и похищает эллиниум. Лаборатория Минифорс созывает суперкоманду – это наши знакомые Вольт, Сэмми, Макс и Люси. К ним присоединяется Анна, дочь доктора Джереми. Минифорс отправляются на борьбу с Армией Ящериц с целью вернуть эллиниум. Им предстоит множество испытаний, чтобы исполнить миссию.
Семпл: https://www.sendspace.com/file/kw31en
Качество: WEBRip 1080р
Формат: MKV
Видео: AVC; 1957 Кбит/сек; 1920х1080 (16:9); 25,000 кадров/сек
Аудио: AAC; 128 Кбит/сек; 2 канала; 44,1 КГц
Субтитры: нет

Подробные технические данные

Общее
Уникальный идентификатор : 204620528096663346945405999318943092466 (0x99F07AF05691FF538B347335840B4EF2)
Полное имя : D:\закачки\Минифорс - НОВЫЕ ГЕРОИ [rutracker.org].mkv
Формат : Matroska
Версия формата : Version 4 / Version 2
Размер файла : 981 Мбайт
Продолжительность : 1 ч. 5 м.
Общий поток : 2088 Кбит/сек
Дата кодирования : UTC 2020-03-24 18:05:20
Программа кодирования : mkvmerge v7.3.0 ('Nouages') 64bit built on Oct 22 2014 18:53:34
Библиотека кодирования : libebml v1.3.0 + libmatroska v1.4.1
Видео
Идентификатор : 1
Формат : AVC
Формат/Информация : Advanced Video Codec
Профиль формата : [email protected]
Настройки формата : CABAC / 3 Ref Frames
Параметр CABAC формата : Да
Параметр RefFrames формата : 3 кадра
Идентификатор кодека : V_MPEG4/ISO/AVC
Продолжительность : 1 ч. 5 м.
Битрейт : 1957 Кбит/сек
Ширина : 1920 пикселей
Высота : 1080 пикселей
Соотношение сторон : 16:9
Режим частоты кадров : Постоянный
Частота кадров : 25,000 кадров/сек
Цветовое пространство : YUV
Субдискретизация насыщенности : 4:2:0
Битовая глубина : 8 бит
Тип развёртки : Прогрессивная
Бит/(Пиксели*Кадры) : 0.038
Размер потока : 919 Мбайт (94%)
Библиотека кодирования : x264 core 155 r2901 7d0ff22
Default : Да
Forced : Нет
Цветовой диапазон : Limited
Основные цвета : BT.709
Характеристики трансфера : BT.709
Коэффициенты матрицы : BT.709
Аудио
Идентификатор : 2
Формат : AAC
Формат/Информация : Advanced Audio Codec
Профиль формата : LC
Идентификатор кодека : A_AAC-2
Продолжительность : 1 ч. 5 м.
Битрейт : 128 Кбит/сек
Каналы : 2 канала
Расположение каналов : Front: L R
Частота : 44,1 КГц
Частота кадров : 43,066 кадра/сек (1024 SPF)
Метод сжатия : С потерями
Размер потока : 60,1 Мбайт (6%)
Язык : English
Default : Да
Forced : Нет

Скриншоты



Display posts:    

Current time is: 05-Apr 02:39

All times are UTC ± 0


You cannot post new topics in this forum
You cannot reply to topics in this forum
You cannot edit your posts in this forum
You cannot delete your posts in this forum
You cannot vote in polls in this forum
You cannot attach files in this forum
You cannot download files in this forum

!ATTENTION!
The site does not give electronic versions of products, and is engaged only in a collecting and cataloguing of the references sent and published at a forum by our readers. If you are the legal owner of any submitted material and do not wish that the reference to it was in our catalogue, contact us and we shall immediately remove her. Files for an exchange on tracker are given by users of a site, and the administration does not bear the responsibility for their maintenance. The request to not fill in the files protected by copyrights, and also files of the illegal maintenance!