Важное объявление!
У Нас Все раздачи мультитрекерные, при нуле пиров в релизах, можете смело вставать на закачку!
 
Автор Сообщение

palych74

Стаж:
4 года 4 месяца
Сообщений:
80

Репутация: 21

[+] [-]
Вне форума [Профиль] [ЛС]

Metallica - Rock in Rio--- -Жанр: Thrash Metal
Продолжительность: 01:48:14
Год выпуска: 2011-James Hetfield (Lead vocals, Guitar), Lars Ulrich (Drums), Kirk Hammett (Lead Guitar), Robert Trujillo (Bass Guitar)-Как всегда супер концерт!-Качество: HDTV
Контейнер: MKV
Видео кодек: H.264
Аудио кодек: AC3
Видео: 1280x720 (16:9) at 29.970 fps, High@L4.1 ~4466 kbps avg
Аудио: AC3 2.0 ,48 kHz ,224 kbps
- -

Tracklist

01. The Ecstasy Of Gold
02. Creeping Death
03. For Whom The Bell Tolls
04. Fuel
05. Ride The Lightning
06. Fade To Black
07. Cyanide
08. All Nightmare Long
09. Sad But True
10. Welcome Home (Sanitarium)
11. Orion
12. One
13. Master Of Puppets
14. Blackened
15. Nothing Else Matters
16. Enter Sandman
-

MI

General
Complete name : E:\Metallica - Rock.in.Rio.2011..mkv
Format : Matroska
File size : 3.62 GiB
Duration : 1h 48mn
Overall bit rate : 4 785 Kbps
Encoded date : UTC 2011-10-02 05:12:47
Writing application : mkvmerge v4.3.0 ('Escape from the Island') сборка от Sep 5 2010 10:30:51
Writing library : libebml v1.0.0 + libmatroska v1.0.0
Video
ID : 1
Format : AVC
Format/Info : Advanced Video Codec
Format profile : High@L4.1
Format settings, CABAC : Yes
Format settings, ReFrames : 4 frames
Frame mode : Frame doubling
Codec ID : V_MPEG4/ISO/AVC
Duration : 1h 48mn
Bit rate mode : Variable
Bit rate : 4 466 Kbps
Maximum bit rate : 40.0 Mbps
Width : 1 280 pixels
Height : 720 pixels
Display aspect ratio : 16:9
Frame rate : 29.970 fps
Color space : YUV
Chroma subsampling : 4:2:0
Bit depth : 8 bits
Scan type : Progressive
Bits/(Pixel*Frame) : 0.162
Stream size : 3.38 GiB (93%)
Language : English
Color primaries : BT.709-5, BT.1361, IEC 61966-2-4, SMPTE RP177
Transfer characteristics : BT.709-5, BT.1361
Matrix coefficients : BT.709-5, BT.1361, IEC 61966-2-4 709, SMPTE RP177
Audio
ID : 2
Format : AC-3
Format/Info : Audio Coding 3
Mode extension : CM (complete main)
Codec ID : A_AC3
Duration : 1h 48mn
Bit rate mode : Constant
Bit rate : 224 Kbps
Channel(s) : 2 channels
Channel positions : Front: L R
Sampling rate : 48.0 KHz
Bit depth : 16 bits
Video delay : 16ms
Stream size : 173 MiB (5%)
-

Скриншоты

Показать сообщения:    

Текущее время: Сегодня 19:01

Часовой пояс: GMT



Вы не можете начинать темы
Вы не можете отвечать на сообщения
Вы не можете редактировать свои сообщения
Вы не можете удалять свои сообщения
Вы не можете голосовать в опросах
Вы не можете прикреплять файлы к сообщениям
Вы не можете скачивать файлы