Ивановский Торрент трекер
Яндекс.Погода
 

[Цитировать]
HUNTER


Marvel: Агент Картер
Marvel One-Shot: Agent Carter
-

  • Год производства: 2013

  • Страна: США

  • Жанр: короткометражка, фантастика, боевик, приключения

  • Продолжительность: 00:15:29

  • Перевод: Профессиональный (многоголосый закадровый)

  • Субтитры: Отсутствуют-
  • Режиссер: Луис Д’Эспозито / Louis D'Esposito-
  • В ролях: Хейли Этвелл, Брэдли Уитфорд, Доминик Купер, Тим Тробек, Джон Баринхолц, Энтони Молинари, Джесс Кинг, Марк Аарон Вагнер, Дэвид Хатчинсон, Джейкоб МакКафферти, Тим Ситарц, Линдси Горт, Сара Шрайбер, Нил МакДонаф и др.-
  • Описание: Короткометражный фильм расскажет о дальнейшей жизни Агента Картер спустя год после событий показанных в ленте Джо Джонстона «Первый мститель».
    Пегги Картер работает агентом в организации стратегического научного резерва, которая также является предшественницей Щ.И.Т.а и ставит перед собой задачи остановить плохих парней из организации Зодиак. На рабочем месте Пегги приходится нелегко. После событий Второй мировой войны, начальство считает её бесполезной и не дает ей ни одного задания. Однажды задержавшись на работе, Пегги случайно перехватывает оперативную наводку о месте положения Зодиака. Не раздумывая, она сразу решает взяться за это дело в одиночку и доказать тем самым всем, что она может ничем не уступать рядовому агенту-мужчине.
    -
  • Качество видео: BDRip 1080p |Исходник: BDRemux 1080p|

  • Формат видео: mkv

  • Видео кодек: H264

  • Аудио кодек: AC3

  • Видео: 1920x800 (2.40:1), 23.976 fps, 12.2 Mbps, 0.331 bit/pixel

  • Аудио: 48 kHz, AC3 6 ch ~384 kbps avg - MVO-
  • Автор рипа: falco
-

Скриншоты

Скриншоты

MediaInfo

Код: copyText_writeLink('this.parentNode.parentNode.nextSibling.nextSibling');
General
Unique ID : 224339600360474734332823668730796069640 (0xA8C63C4379FEEB3EA97B8F907E225308)
Complete name : D:\Marvel.agent.karter.2013.BDRip.1080.falco.mkv
Format : Matroska
Format version : Version 4 / Version 2
File size : 1.36 GiB
Duration : 15mn 29s
Overall bit rate : 12.6 Mbps
Movie name : Marvel.agent.karter
Encoded date : UTC 2013-09-21 17:17:52
Writing application : mkvmerge v6.4.1 ('Omega Point') built on Sep 16 2013 22:05:10
Writing library : libebml v1.3.0 + libmatroska v1.4.1
Video
ID : 1
Format : AVC
Format/Info : Advanced Video Codec
Format profile : Main@L4.1
Format settings, CABAC : Yes
Format settings, ReFrames : 4 frames
Codec ID : V_MPEG4/ISO/AVC
Duration : 15mn 29s
Bit rate : 12.2 Mbps
Width : 1 920 pixels
Height : 800 pixels
Display aspect ratio : 2.40:1
Frame rate : 23.976 fps
Color space : YUV
Chroma subsampling : 4:2:0
Bit depth : 8 bits
Scan type : Progressive
Bits/(Pixel*Frame) : 0.331
Stream size : 1.29 GiB (95%)
Writing library : x264 core 130 r2273 b3065e6
Encoding settings : cabac=1 / ref=4 / deblock=1:-1:-1 / analyse=0x1:0x131 / me=umh / subme=10 / psy=1 / psy_rd=1.00:0.00 / mixed_ref=1 / me_range=16 / chroma_me=1 / trellis=2 / 8x8dct=0 / cqm=0 / deadzone=21,11 / fast_pskip=0 / chroma_qp_offset=-4 / threads=6 / lookahead_threads=1 / sliced_threads=0 / nr=0 / decimate=0 / interlaced=0 / bluray_compat=0 / constrained_intra=0 / bframes=4 / b_pyramid=2 / b_adapt=0 / b_bias=0 / direct=3 / weightb=1 / open_gop=0 / weightp=2 / keyint=250 / keyint_min=23 / scenecut=40 / intra_refresh=0 / rc_lookahead=50 / rc=2pass / mbtree=1 / bitrate=12199 / ratetol=1.0 / qcomp=0.60 / qpmin=0 / qpmax=69 / qpstep=4 / cplxblur=20.0 / qblur=0.5 / ip_ratio=1.40 / aq=1:1.00
Default : Yes
Forced : No
Audio
ID : 2
Format : AC-3
Format/Info : Audio Coding 3
Mode extension : CM (complete main)
Format settings, Endianness : Big
Codec ID : A_AC3
Duration : 15mn 29s
Bit rate mode : Constant
Bit rate : 384 Kbps
Channel(s) : 6 channels
Channel positions : Front: L C R, Side: L R, LFE
Sampling rate : 48.0 KHz
Bit depth : 16 bits
Compression mode : Lossy
Stream size : 42.5 MiB (3%)
Title : MVO
Language : Russian
Default : No
Forced : No
Menu
00:00:00.000 : en:00:00:00.000
00:05:04.804 : en:00:05:04.804
00:10:08.691 : en:00:10:08.691


Показать сообщения:    

Текущее время: 12-Дек 06:48

Часовой пояс: UTC ± 0


Вы не можете начинать темы
Вы не можете отвечать на сообщения
Вы не можете редактировать свои сообщения
Вы не можете удалять свои сообщения
Вы не можете голосовать в опросах
Вы не можете прикреплять файлы к сообщениям
Вы не можете скачивать файлы

!ВНИМАНИЕ!
Сайт не предоставляет электронные версии произведений, а занимается лишь коллекционированием и каталогизацией ссылок, присылаемых и публикуемых на форуме нашими читателями. Если вы являетесь правообладателем какого-либо представленного материала и не желаете, чтобы ссылка на него находилась в нашем каталоге, свяжитесь с нами, и мы незамедлительно удалим ее. Файлы для обмена на трекере предоставлены пользователями сайта, и администрация не несет ответственности за их содержание. Просьба не заливать файлы, защищенные авторскими правами, а также файлы нелегального содержания!