Ивановский Торрент трекер
Яндекс.Погода
 

[Quote]
HUNTER

Марокко / Morocco
Страна: США
Жанр: драма
Год выпуска: 1930
Продолжительность: 01:32:00
Перевод 1: Профессиональный (многоголосый закадровый) - Фильм Престиж
Перевод 2: Профессиональный (двухголосый закадровый) - Культура (СВ Дубль)
Перевод 3: Профессиональный (двухголосый закадровый) - New Dream Media
Перевод 4: Субтитры - Фильм Престиж
Субтитры: русские, английские
Оригинальная аудиодорожка: английский
Режиссер: Джозеф фон Штернберг / Josef von Sternberg
В ролях: Гари Купер, Марлен Дитрих, Адольф Менжу, Фрэнсис Макдоналд, Ульрих Хаупт, Ив Саузерн
Описание: Сняв "Голубого Ангела", Штернберг вместе с Марлен Дитрих (1901-1992) отбыли в США. Там на протяжении первых четырёх с половиной голливудских лет они создают фильмы, обеспечившие им бессмертие: "Марокко", "Обесчещенная", "Белокурая Венера", "Шанхайский экспресс". В них Марлен формирует свой образ — женщина "с прошлым", но чистая сердцем, сохранившая, вопреки всем разочарованиям, веру в любовь.
Марокко, конец 20-х. Певица Эми Жолли приезжает выступать в местное варьете. Богач и донжуан Ла Бессье предлагает ей своё покровительство, а спустя некоторое время — руку и сердце. Но Эми влюбляется в легионера-американца Брауна. После недолгих колебаний она отказывается от обеспеченной жизни в доме жениха и уходит за любимым, отправляющимся в дальний поход в пустыню.
В своем шикарном доме на Голливудских холмах, на таком же кинопроекторе как и у героини "Бульвара Сансет", Марлен любила снова и снова просматривать финальную сцену из "Марокко": мужественная певица Эми Жолли уходит босиком по песку марокканской пустыни навстречу закату, вслед за неверным возлюбленным. "Она прелестна, — говорила Марлен о себе в третьем лице. — Она просто неподражаема:"
4 номинации на Oscar — лучшие режиссер, актриса, художник-постановщик, оператор.
Nominated for 4 Oscars. Another 3 wins
Доп. информация: К WEB-DL 1080p, скаченному с забугорного трекера, добавлена русская звуковая дорожка и субтитры с диска Фильм Престиж из личной коллекции и две русские звуковые дорожки с этой раздачи, спасибо vedigo.
Сэмпл: http://multi-up.com/1185681
Тип релиза: WEB-DL 1080p
Контейнер: MKV
Видео: AVC, 14,1 Мбит/сек, 1440 x 1080, 23,976 fps
Аудио 1: Russian (Dolby AC3, 2 ch), 48 kHz, 192 kbps - Фильм Престиж
Аудио 2: Russian (Dolby AC3, 2 ch), 48 kHz, 192 kbps - Культура (СВ Дубль)
Аудио 3: Russian (Dolby AC3, 2 ch), 48 kHz, 192 kbps - New Dream Media
Аудио 4: English (EAC3, 2 ch), 48 kHz, 224 kbps
Формат субтитров: UTF-8

MediaInfo

Matroska
Версия формата : Version 2
Размер файла : 9,75 Гбайт
Продолжительность : 1 ч. 32 м.
Режим общего битрейта : Переменный
Общий поток : 15,2 Мбит/сек
Дата кодирования : UTC 2018-01-28 12:48:36
Программа кодирования : mkvmerge v7.5.0 ('Glass Culture') 32bit built on Jan 4 2015 16:37:25
Библиотека кодирования : libebml v1.3.1 + libmatroska v1.4.2
Attachements : cover.jpg
DURATION : 01:28:00.455000000
NUMBER_OF_FRAMES : 580
NUMBER_OF_BYTES : 31848
_STATISTICS_WRITING_APP : mkvmerge v7.5.0 ('Glass Culture') 32bit built on Jan 4 2015 16:37:25
_STATISTICS_WRITING_DATE_UTC : 2018-01-28 12:48:36
_STATISTICS_TAGS : BPS DURATION NUMBER_OF_FRAMES NUMBER_OF_BYTES
Видео
Идентификатор : 1
Формат : AVC
Формат/Информация : Advanced Video Codec
Профиль формата : [email protected]
Параметр CABAC формата : Да
Параметр ReFrames формата : 4 кадра
Идентификатор кодека : V_MPEG4/ISO/AVC
Продолжительность : 1 ч. 32 м.
Вид битрейта : Переменный
Битрейт : 14,1 Мбит/сек
Максимальный битрейт : 15,0 Мбит/сек
Ширина : 1440 пикселей
Высота : 1080 пикселей
Соотношение сторон : 4:3
Режим частоты кадров : Постоянный
Частота кадров : 23,976 кадра/сек
Цветовое пространство : YUV
Субдискретизация насыщенности : 4:2:0
Битовая глубина : 8 бит
Тип развёртки : Прогрессивная
Бит/(Пиксели*Кадры) : 0.377
Размер потока : 9,04 Гбайт (93%)
Язык : Russian
Default : Да
Forced : Нет
Основные цвета : BT.709
Характеристики трансфера : BT.709
Коэффициенты матрицы : BT.709
colour_range : Limited
Аудио #1
Идентификатор : 2
Формат : AC-3
Формат/Информация : Audio Coding 3
Расширение режима : CM (complete main)
Параметр Endianness формата : Big
Идентификатор кодека : A_AC3
Продолжительность : 1 ч. 32 м.
Вид битрейта : Постоянный
Битрейт : 192 Кбит/сек
Каналы : 2 канала
Расположение каналов : Front: L R
Частота : 48,0 КГц
Битовая глубина : 16 бит
Метод сжатия : С потерями
Размер потока : 126 Мбайт (1%)
Заголовок : Фильм-Престиж
Язык : Russian
Default : Да
Forced : Нет
Аудио #2
Идентификатор : 3
Формат : AC-3
Формат/Информация : Audio Coding 3
Расширение режима : CM (complete main)
Параметр Endianness формата : Big
Идентификатор кодека : A_AC3
Продолжительность : 1 ч. 32 м.
Вид битрейта : Постоянный
Битрейт : 192 Кбит/сек
Каналы : 2 канала
Расположение каналов : Front: L R
Частота : 48,0 КГц
Битовая глубина : 16 бит
Метод сжатия : С потерями
Размер потока : 126 Мбайт (1%)
Заголовок : Культура
Язык : Russian
Default : Нет
Forced : Нет
Аудио #3
Идентификатор : 4
Формат : AC-3
Формат/Информация : Audio Coding 3
Расширение режима : CM (complete main)
Параметр Endianness формата : Big
Идентификатор кодека : A_AC3
Продолжительность : 1 ч. 32 м.
Вид битрейта : Постоянный
Битрейт : 192 Кбит/сек
Каналы : 2 канала
Расположение каналов : Front: L R
Частота : 48,0 КГц
Битовая глубина : 16 бит
Метод сжатия : С потерями
Размер потока : 126 Мбайт (1%)
Язык : Russian
Default : Нет
Forced : Нет
Аудио #4
Идентификатор : 5
Формат : E-AC-3
Формат/Информация : Audio Coding 3
Параметр Endianness формата : Big
Идентификатор кодека : A_EAC3
Продолжительность : 1 ч. 32 м.
Вид битрейта : Постоянный
Битрейт : 224 Кбит/сек
Каналы : 2 канала
Расположение каналов : Front: L R
Частота : 48,0 КГц
Метод сжатия : С потерями
Размер потока : 147 Мбайт (1%)
Язык : English
Default : Нет
Forced : Нет
Текст #1
Идентификатор : 6
Формат : UTF-8
Идентификатор кодека : S_TEXT/UTF8
Идентификатор кодека/Информация : UTF-8 Plain Text
Язык : Russian
Default : Нет
Forced : Нет
Текст #2
Идентификатор : 7
Формат : UTF-8
Идентификатор кодека : S_TEXT/UTF8
Идентификатор кодека/Информация : UTF-8 Plain Text
Язык : English
Default : Нет
Forced : Нет
Текст #3
Идентификатор : 8
Формат : UTF-8
Идентификатор кодека : S_TEXT/UTF8
Идентификатор кодека/Информация : UTF-8 Plain Text
Заголовок : SDH
Язык : English
Default : Нет
Forced : Нет
Меню
00:00:00.000 : en:01. Main Titles
00:01:40.100 : en:02. The Foreign Legion
00:06:48.450 : en:03. One-Way Ticket
00:09:49.214 : en:04. Full House
00:14:13.394 : en:05. New Talent
00:20:08.249 : en:06. Bid for My Apple
00:26:27.294 : en:07. Late Night Rendezvous
00:30:30.954 : en:08. There's Gonna Be Trouble
00:39:13.518 : en:09. Paying the Price
00:46:40.756 : en:10. A Tempting Offer
00:50:37.743 : en:11. I Changed My Mind
00:54:15.461 : en:12. Saving Goodbye
00:59:31.860 : en:13. Turned Decent
01:01:39.738 : en:14. Losing the Headliner
01:05:25.171 : en:15. Lady Killer
01:09:10.730 : en:16. Dead or Alive
01:17:45.119 : en:17. True Love
01:26:27.974 : en:18. Joining the Rear

Скриншоты



Display posts:    

Current time is: 14-Jul 10:10

All times are UTC ± 0


You cannot post new topics in this forum
You cannot reply to topics in this forum
You cannot edit your posts in this forum
You cannot delete your posts in this forum
You cannot vote in polls in this forum
You cannot attach files in this forum
You cannot download files in this forum

!ATTENTION!
The site does not give electronic versions of products, and is engaged only in a collecting and cataloguing of the references sent and published at a forum by our readers. If you are the legal owner of any submitted material and do not wish that the reference to it was in our catalogue, contact us and we shall immediately remove her. Files for an exchange on tracker are given by users of a site, and the administration does not bear the responsibility for their maintenance. The request to not fill in the files protected by copyrights, and also files of the illegal maintenance!