Ивановский Торрент трекер
Яндекс.Погода
DL-List and Torrent activity
None
 
     
 
 

[Quote]
HUNTER

Манипуляции с зажигалкой "Zippo" / 50 Ways To Rock A Lighter-
Год выпуска: 1999
Страна: США
Сайт производителя: Отсутствует
Тематика: спорт
Тип материала: Обучающее видео-Продолжительность: 00:30:28
Автор: Alex Aarvik-Язык: английский
Субтитры: Отсутствуют-Описание: Обучающее видео манипуляции с зажигалкой zippo! В данном видео показывается как выполнять разнообразные трюки с уже так всем знакомой зажигалкой - "Зиппо". Уверяю что будет интересно не только тем кто покуривает, но и тем кто бросил этим заниматься. Ребята показывают классные трюки, так что любой очевидец полюбому скажет - вау, я тоже так хочу.Смотрим и незабывайте что минздрав предупреждает, курение опасно для вашего здоровья!-Качество: DVDRip
Формат: AVI
Видео кодек: XviD
Аудио кодек: MPEG Audio
Видео: 720x480 (1.50:1), 14.865 fps, XviD MPEG-4 ~789 kbps avg, 0.15 bit/pixel
Аудио: 48 kHz, MPEG Layer 3, 2 ch, ~128.00 kbps avg-

MediaInfo

Код: copyText_writeLink('this.parentNode.parentNode.nextSibling.nextSibling'); General
Complete name : E:\Обучение\50 ways 2 roCK a ligter.AVI
Format : AVI
Format/Info : Audio Video Interleave
File size : 175 MiB
Duration : 30mn 28s
Overall bit rate : 802 Kbps
Video
ID : 0
Format : MPEG-4 Visual
Format profile : Simple@L1
Format settings, BVOP : No
Format settings, QPel : No
Format settings, GMC : No warppoints
Format settings, Matrix : Default (H.263)
Codec ID : XVID
Codec ID/Hint : XviD
Duration : 30mn 28s
Bit rate : 667 Kbps
Width : 720 pixels
Height : 480 pixels
Display aspect ratio : 3:2
Frame rate : 14.865 fps
Standard : NTSC
Color space : YUV
Chroma subsampling : 4:2:0
Bit depth : 8 bits
Scan type : Progressive
Compression mode : Lossy
Bits/(Pixel*Frame) : 0.130
Stream size : 145 MiB (83%)
Writing library : Lavc49.0.1
Audio
ID : 1
Format : MPEG Audio
Format version : Version 1
Format profile : Layer 3
Codec ID : 55
Codec ID/Hint : MP3
Duration : 29mn 32s
Bit rate mode : Constant
Bit rate : 128 Kbps
Channel(s) : 2 channels
Sampling rate : 48.0 KHz
Compression mode : Lossy
Stream size : 27.0 MiB (15%)
Alignment : Split accross interleaves
Interleave, duration : 25 ms (0.37 video frame)
- -


Display posts:    

Current time is: 23-May 23:15

All times are UTC ± 0


You cannot post new topics in this forum
You cannot reply to topics in this forum
You cannot edit your posts in this forum
You cannot delete your posts in this forum
You cannot vote in polls in this forum
You cannot attach files in this forum
You cannot download files in this forum

!ATTENTION!
The site does not give electronic versions of products, and is engaged only in a collecting and cataloguing of the references sent and published at a forum by our readers. If you are the legal owner of any submitted material and do not wish that the reference to it was in our catalogue, contact us and we shall immediately remove her. Files for an exchange on tracker are given by users of a site, and the administration does not bear the responsibility for their maintenance. The request to not fill in the files protected by copyrights, and also files of the illegal maintenance!