Ивановский Торрент трекер
Яндекс.Погода
 

[Quote]
HUNTER

Маленькое привидение / Das kleine Gespenst Страна: Германия, Швейцария
Жанр: Фэнтези, семейный
Год выпуска: 2013
Продолжительность: 01:31:47
Перевод: Одноголосый закадровый
Субтитры: русские
Оригинальная аудиодорожка: немецкий
Режиссер: Ален Гспонер / Alain Gspone
В ролях: Йонас Холденриедер / Jonas Holdenrieder, Нико Хартунг / Nico Hartung, Тилль Валентин Винтер / Till Valentin Winter, Emily Kusche, Херберт Кнауп / Herbert Knaup, Беттина Стуки / Bettina Stucky, Уве Оксенкнехт / Uwe Ochsenknecht, Карлос Рихтер / Carlos Richter, Штефан Мерки / Stefan Merki, Айкют Каячик / Aykut Kayacik, Алёша Стэйделманн / Aljoscha Stadelmann, Юдит Розмайр / Judith Rosmair, Сандра Боргманн / Sandra Borgmann, Штефан Кампвирт / Stephan Kampwirth, Джеймс Батлер / Jaymes Butler.
Описание: Живущее в старинном замке Ойленштайн маленькое привидение мечтает увидеть мир при дневном свете. Как это сделать — никто не знает. Однажды во время ночной экскурсии по замку он знакомится со школьником Карлом. Тот рассказывает о неожиданной встрече, но ему не верят даже лучшие друзья Мари и Хайнес. Ночное происшествие не проходит без последствий. В следующий раз маленькое привидение просыпается вовсе не в полночь, а средь бела дня. При первом контакте с солнечным светом призрак вместо белого неожиданно становится полностью чёрным. Появление чёрного привидения вызывает настоящий хаос в городе. Помочь ему могут только Карл и его друзья.

СБОРКА Urasik

Релиз:



Меню: есть
Тип релиза: DVD5 (Custom)
Контейнер: DVD-Video
Видео: NTSC 16:9 (720x480)
Аудио: AC3, 2/0 (L,R) ch, 192 kbps, Delay 0 mSec
Аудио 2: AC3, 2/0 (L,R) ch, 192 kbps, Delay 0 mSec

DVD Info

Title: Das kleine Gespenst DVD-5 Rus(2013)
Size: 3.86 Gb ( 4 051 356,00 KBytes ) - DVD-5
Enabled regions: 1, 2, 3, 4, 5, 6, 7, 8
VTS_01 :
Play Length: 00:00:11+{00:00:11}
Video: NTSC 16:9 (720x480) VBR, Auto Letterboxed
VTS_02 :
Play Length: 00:00:00
Video: NTSC 16:9 (720x480) VBR, Auto Letterboxed
VTS_03 :
Play Length: 01:31:47
Video: NTSC 16:9 (720x480) VBR, Auto Letterboxed
Audio:
Russian, AC3, 2/0 (L,R) ch, 192 kbps, Delay 0 mSec
English, AC3, 2/0 (L,R) ch, 192 kbps, Delay 0 mSec
Subtitles:
Russian
English

MediaInfo

Общее
Полное имя : M:\МОИ ВИДЕОЗАПИСИ\DVD ОРИГИНЫ ДЛЯ ПЕРЕВОДА\Маленькое привидение Das kleine Gespenst (2013) Германия, Швейцария DVD - 5\Das kleine Gespenst DVD-5 Rus(2013)\VIDEO_TS\VTS_03_2.VOB
Формат : MPEG-PS
Размер файла : 1024 Мбайт
Продолжительность : 21 м.
Режим общего битрейта : Переменный
Общий поток : 6570 Кбит/сек
Видео
Идентификатор : 224 (0xE0)
Формат : MPEG Video
Версия формата : Version 2
Профиль формата : [email protected]
Параметр BVOP формата : Да
Параметр матрицы формата : Выборочная
Параметр GOP формата : M=3, N=12
Продолжительность : 21 м.
Вид битрейта : Переменный
Битрейт : 6055 Кбит/сек
Максимальный битрейт : 7700 Кбит/сек
Ширина : 720 пикселей
Высота : 480 пикселей
Соотношение сторон : 16:9
Частота кадров : 23,976 (24000/1001) кадра/сек
Стандарт вещания : NTSC
Цветовое пространство : YUV
Субдискретизация насыщенности : 4:2:0
Битовая глубина : 8 бит
Тип развёртки : Прогрессивная
Порядок развёртки : 2:3 Pulldown
Метод сжатия : С потерями
Бит/(Пиксели*Кадры) : 0.731
Временной код первого кадра : 01:25:56:00
Оригинал временного кода : Group of pictures header
GOP, открыто/закрыто : Закрыто
Размер потока : 944 Мбайт (92%)
Основные цвета : BT.601 NTSC
Характеристики трансфера : BT.601
Коэффициенты матрицы : BT.601
Аудио #1
Идентификатор : 189 (0xBD)-128 (0x80)
Формат : AC-3
Формат/Информация : Audio Coding 3
Расширение режима : CM (complete main)
Параметр Endianness формата : Big
Режим смешивания : DVD-Video
Продолжительность : 21 м.
Вид битрейта : Постоянный
Битрейт : 192 Кбит/сек
Каналы : 2 канала
Расположение каналов : Front: L R
Частота : 48,0 КГц
Частота кадров : 31,250 кадров/сек (1536 spf)
Метод сжатия : С потерями
Задержка видео : -340 мс.
Размер потока : 29,9 Мбайт (3%)
Аудио #2
Идентификатор : 189 (0xBD)-129 (0x81)
Формат : AC-3
Формат/Информация : Audio Coding 3
Расширение режима : CM (complete main)
Параметр Endianness формата : Big
Режим смешивания : DVD-Video
Продолжительность : 21 м.
Вид битрейта : Постоянный
Битрейт : 192 Кбит/сек
Каналы : 2 канала
Расположение каналов : Front: L R
Частота : 48,0 КГц
Частота кадров : 31,250 кадров/сек (1536 spf)
Метод сжатия : С потерями
Задержка видео : -340 мс.
Размер потока : 29,9 Мбайт (3%)
Текст #1
Идентификатор : 189 (0xBD)-32 (0x20)
Формат : RLE
Формат/Информация : Run-length encoding
Режим смешивания : DVD-Video
Продолжительность : 21 м.
Задержка видео : 15 с.
Текст #2
Идентификатор : 189 (0xBD)-33 (0x21)
Формат : RLE
Формат/Информация : Run-length encoding
Режим смешивания : DVD-Video
Продолжительность : 21 м.
Задержка видео : 15 с.
Текст #3
Идентификатор : 224 (0xE0)-CC3
Формат : EIA-608
Режим смешивания, доп. информация : Muxed in Video #1
Продолжительность : 21 м.
Вид битрейта : Постоянный
Размер потока : 0,00 байт (0%)
Меню
Продолжительность : 21 м.

Скриншоты меню

Скриншоты

ОБЛОЖКА



Display posts:    

Current time is: 07-Jul 06:19

All times are UTC ± 0


You cannot post new topics in this forum
You cannot reply to topics in this forum
You cannot edit your posts in this forum
You cannot delete your posts in this forum
You cannot vote in polls in this forum
You cannot attach files in this forum
You cannot download files in this forum

!ATTENTION!
The site does not give electronic versions of products, and is engaged only in a collecting and cataloguing of the references sent and published at a forum by our readers. If you are the legal owner of any submitted material and do not wish that the reference to it was in our catalogue, contact us and we shall immediately remove her. Files for an exchange on tracker are given by users of a site, and the administration does not bear the responsibility for their maintenance. The request to not fill in the files protected by copyrights, and also files of the illegal maintenance!