Ивановский Торрент трекер
Яндекс.Погода
 

[Цитировать]
HUNTER

Маленький полярный медвежонок: Гость с южного полюса / The Little Polar Bear: A Visitor from the South Pole- Страна: Германия
Жанр: мультфильм, приключения, семейный
Продолжительность: 01:11:02
Год выпуска: 2004
Перевод: Одноголосый закадровый Александр Пейн
Русские субтитры: есть by Manner_Game-Режиссёр: Тило Роткирч / Thilo Rothk-Роли озвучивали: Максимилиан Артайо, Патрик Баер, Анн Фридрих, Адак Аздашт, Лиза Мишинг, Мэри Шрамм и др.-Описание: Когда Ларс и Робби изучают последствия кораблекрушения, огромный осьминог Октавиус спасает жизнь Ларса и объясняет всем, что вода - это здорово, даже когда не умеешь плавать. Наконец, на Северном полюсе появляется чужак - жизнерадостный пингвин Карузо, распевающий песни. Но безобразники - полярные медведи Брутус, Борис и Бёрт не любят чужаков и задумывают прогнать Карузо. И теперь Ларс с друзьями должны спасти Карузо, чтобы даже вечно печальные Лемминги были счастливы.-Релиз от: -Благодарности:
multmir - оригинальный DVD
Manner_Game - русские субтитры
Александр Пейн - озвучивание и сведение
Bobropandavar - обработка чистого голоса
Lexa1988-L1 - русское меню + постер
*Sergeant_am* - реавторинг
-Маленький полярный медвежонок (2001)
Маленький полярный медвежонок. Ларс и Тигренок (2002)
Маленький полярный медвежонок. Полёт мечты (2003)
Маленький полярный медвежонок 2. Таинственный остров (2005)
-Семпл: http://multi-up.com/1188340-Качество: DVD5 (Custom)
Формат: DVD-Video-Видео: PAL, 720x576, 16:9, 6201 Кбит/сек, 25,000 кадров/сек
Аудио 1: 48 kHz, AC3 Dolby Digital, 2/0 (L,R) ch, ~192 kbps (Rus)
Аудио 2: 48 kHz, AC3 Dolby Digital, 2/0 (L,R) ch, ~192 kbps (Eng)
Субтитры: русские, английские

Отчёт MediaInfo

Общее
Полное имя : C:\Downloads\Полярный медвежонок. Гость с Южного полюса (DVD5)\VTS_01_2.VOB
Формат : MPEG-PS
Размер файла : 1024 Мбайт
Продолжительность : 21 м. 18 с.
Режим общего битрейта : Переменный
Общий поток : 6719 Кбит/сек
Видео
Идентификатор : 224 (0xE0)
Формат : MPEG Video
Версия формата : Version 2
Профиль формата : Main@Main
Параметр BVOP формата : Да
Параметр матрицы формата : Выборочная
Параметр GOP формата : Variable
Структура изображения : Frame
Продолжительность : 21 м. 18 с.
Вид битрейта : Переменный
Битрейт : 6201 Кбит/сек
Максимальный битрейт : 9800 Кбит/сек
Ширина : 720 пикселей
Высота : 576 пикселей
Соотношение сторон : 16:9
Частота кадров : 25,000 кадров/сек
Стандарт вещания : PAL
Цветовое пространство : YUV
Субдискретизация насыщенности : 4:2:0
Битовая глубина : 8 бит
Тип развёртки : Чересстрочная
Порядок развёртки : Верхнее поле первое
Метод сжатия : С потерями
Бит/(Пиксели*Кадры) : 0.598
Временной код первого кадра : 01:22:22:10
Оригинал временного кода : Group of pictures header
Размер потока : 945 Мбайт (92%)
Аудио #1
Идентификатор : 189 (0xBD)-128 (0x80)
Формат : AC-3
Формат/Информация : Audio Coding 3
Расширение режима : CM (complete main)
Параметр Endianness формата : Big
Режим смешивания : DVD-Video
Продолжительность : 21 м. 18 с.
Вид битрейта : Постоянный
Битрейт : 192 Кбит/сек
Каналы : 2 канала
Расположение каналов : Front: L R
Частота : 48,0 КГц
Частота кадров : 31,250 кадров/сек (1536 spf)
Битовая глубина : 16 бит
Метод сжатия : С потерями
Задержка видео : -592 мс.
Размер потока : 29,3 Мбайт (3%)
Аудио #2
Идентификатор : 189 (0xBD)-129 (0x81)
Формат : AC-3
Формат/Информация : Audio Coding 3
Профиль формата : Dolby Digital
Расширение режима : CM (complete main)
Параметр Endianness формата : Big
Режим смешивания : DVD-Video
Продолжительность : 21 м. 18 с.
Вид битрейта : Постоянный
Битрейт : 192 Кбит/сек
Каналы : 2 канала
Расположение каналов : Front: L R
Частота : 48,0 КГц
Частота кадров : 31,250 кадров/сек (1536 spf)
Битовая глубина : 16 бит
Метод сжатия : С потерями
Задержка видео : -592 мс.
Размер потока : 29,3 Мбайт (3%)
Текст #1
Идентификатор : 189 (0xBD)-32 (0x20)
Формат : RLE
Формат/Информация : Run-length encoding
Режим смешивания : DVD-Video
Задержка видео : 920 мс.
Текст #2
Идентификатор : 189 (0xBD)-33 (0x21)
Формат : RLE
Формат/Информация : Run-length encoding
Режим смешивания : DVD-Video
Задержка видео : 640 мс.
Меню

Скриншоты меню

Скриншоты



Показать сообщения:    

Текущее время: 21-Сен 14:12

Часовой пояс: UTC ± 0


Вы не можете начинать темы
Вы не можете отвечать на сообщения
Вы не можете редактировать свои сообщения
Вы не можете удалять свои сообщения
Вы не можете голосовать в опросах
Вы не можете прикреплять файлы к сообщениям
Вы не можете скачивать файлы

!ВНИМАНИЕ!
Сайт не предоставляет электронные версии произведений, а занимается лишь коллекционированием и каталогизацией ссылок, присылаемых и публикуемых на форуме нашими читателями. Если вы являетесь правообладателем какого-либо представленного материала и не желаете, чтобы ссылка на него находилась в нашем каталоге, свяжитесь с нами, и мы незамедлительно удалим ее. Файлы для обмена на трекере предоставлены пользователями сайта, и администрация не несет ответственности за их содержание. Просьба не заливать файлы, защищенные авторскими правами, а также файлы нелегального содержания!