Важное объявление!
У Нас Все раздачи мультитрекерные, при нуле пиров в релизах, можете смело вставать на закачку!
 
Автор Сообщение

HUNTER

Стаж:
4 года 4 месяца
Сообщений:
56783

Репутация: 101

[+] [-]
Вне форума [Профиль] [ЛС]

M-Project / Blood, Sweat & Makina
Жанр: Makina, Happy Hardcore
Носитель: CD
Страна-производитель диска: Japan
Год издания: 2013
Издатель (лейбл): Terraform Music
Номер по каталогу: TFCD004
Страна: Japan
Аудиокодек: FLAC (*.flac)
Тип рипа: tracks+.cue
Битрейт аудио: lossless
Продолжительность: 01:06:41
Источник (релизер): Диск из коллекции
Наличие сканов в содержимом раздачи: нет
Треклист:
01. Blood, Sweat & Makina [06:43]
02. Fountain Of Remembrance [06:07]
03. The Turbulence of Awakening (feat. 3R2) [05:52]
04. Rhythm Of Love (feat. Yuki) [04:48]
05. Cosmic Forge (feat. PJ Makina) [06:51]
06. Crimson Viper (feat. DJ DEPATH) [05:36]
07. Synthetic Sky [05:32]
08. Mind Activation (feat. SPeeDX) [05:38]
09. Lost In The Rave (feat. Zoe Vanwest) [06:52]
10. Genesis (feat. Daniel Seven) [06:33]
11. Magnetic Dreams (feat. Xavi BCN) [06:03]

Лог создания рипа

Exact Audio Copy V1.0 beta 3 from 29. August 2011
EAC extraction logfile from 15. August 2013, 5:03
M-Project / Blood, Sweat & Makina
Used drive : ASUS BW-12B1ST Adapter: 0 ID: 0
Read mode : SecureUtilize accurate stream : YesDefeat audio cache : YesMake use of C2 pointers : No
Read offset correction : 6Overread into Lead-In and Lead-Out : NoFill up missing offset samples with silence : YesDelete leading and trailing silent blocks : NoNull samples used in CRC calculations : YesUsed interface : Native Win32 interface for Win NT & 2000Gap handling : Appended to previous track
Used output format : User Defined EncoderSelected bitrate : 768 kBit/sQuality : HighAdd ID3 tag : NoCommand line compressor : D:\Program Files (x86)\Exact Audio Copy\FLAC\FLAC.EXEAdditional command line options : -V -T "ARTIST=%artist%" -T "TITLE=%title%" -T "ALBUM=%albumtitle%" -T "DATE=%year%" -T "TRACKNUMBER=%tracknr%" -T "GENRE=%genre%" -T "PERFORMER=%albuminterpret%" -T "COMPOSER=%composer%" %haslyrics%--tag-from-file=LYRICS="%lyricsfile%"%haslyrics% -T "ALBUMARTIST=%albumartist%" -T "DISCNUMBER=%cdnumber%" -T "TOTALDISCS=%totalcds%" -T "TOTALTRACKS=%numtracks%" -T "COMMENT=%comment%" %source% -o %dest%
TOC of the extracted CD
Track | Start | Length | Start sector | End sector --------------------------------------------------------- 1 | 0:00.00 | 6:43.20 | 0 | 30244 2 | 6:43.20 | 6:07.68 | 30245 | 57837 3 | 12:51.13 | 5:52.66 | 57838 | 84303 4 | 18:44.04 | 4:48.30 | 84304 | 105933 5 | 23:32.34 | 6:51.18 | 105934 | 136776 6 | 30:23.52 | 5:36.55 | 136777 | 162031 7 | 36:00.32 | 5:32.01 | 162032 | 186932 8 | 41:32.33 | 5:38.47 | 186933 | 212329 9 | 47:11.05 | 6:52.26 | 212330 | 243255 10 | 54:03.31 | 6:33.65 | 243256 | 272795 11 | 60:37.21 | 6:03.64 | 272796 | 300084
Track 1
Filename C:\EAC\M-Project - Blood, Sweat & Makina (2013) [FLAC]\01 - Blood, Sweat & Makina.wav
Pre-gap length 0:00:02.00
Peak level 99.9 % Extraction speed 5.1 X Track quality 100.0 % Test CRC 02323A8C Copy CRC 02323A8C Track not present in AccurateRip database Copy OK
Track 2
Filename C:\EAC\M-Project - Blood, Sweat & Makina (2013) [FLAC]\02 - Fountain Of Remembrance.wav
Peak level 98.0 % Extraction speed 5.9 X Track quality 100.0 % Test CRC 3AC16C87 Copy CRC 3AC16C87 Track not present in AccurateRip database Copy OK
Track 3
Filename C:\EAC\M-Project - Blood, Sweat & Makina (2013) [FLAC]\03 - The Turbulence of Awakening (feat. 3R2).wav
Peak level 99.9 % Extraction speed 5.6 X Track quality 99.9 % Test CRC 0EDBF378 Copy CRC 0EDBF378 Track not present in AccurateRip database Copy OK
Track 4
Filename C:\EAC\M-Project - Blood, Sweat & Makina (2013) [FLAC]\04 - Rhythm Of Love (feat. Yuki).wav
Peak level 99.9 % Extraction speed 6.8 X Track quality 100.0 % Test CRC CC557E3C Copy CRC CC557E3C Track not present in AccurateRip database Copy OK
Track 5
Filename C:\EAC\M-Project - Blood, Sweat & Makina (2013) [FLAC]\05 - Cosmic Forge (feat. PJ Makina).wav
Peak level 92.5 % Extraction speed 7.5 X Track quality 100.0 % Test CRC EEC8CCE9 Copy CRC EEC8CCE9 Track not present in AccurateRip database Copy OK
Track 6
Filename C:\EAC\M-Project - Blood, Sweat & Makina (2013) [FLAC]\06 - Crimson Viper (feat. DJ DEPATH).wav
Peak level 94.7 % Extraction speed 7.8 X Track quality 100.0 % Test CRC CF041F36 Copy CRC CF041F36 Track not present in AccurateRip database Copy OK
Track 7
Filename C:\EAC\M-Project - Blood, Sweat & Makina (2013) [FLAC]\07 - Synthetic Sky.wav
Peak level 100.0 % Extraction speed 7.1 X Track quality 99.9 % Test CRC B44A1BBD Copy CRC B44A1BBD Track not present in AccurateRip database Copy OK
Track 8
Filename C:\EAC\M-Project - Blood, Sweat & Makina (2013) [FLAC]\08 - Mind Activation (feat. SPeeDX).wav
Peak level 93.4 % Extraction speed 7.5 X Track quality 99.9 % Test CRC 75C9F175 Copy CRC 75C9F175 Track not present in AccurateRip database Copy OK
Track 9
Filename C:\EAC\M-Project - Blood, Sweat & Makina (2013) [FLAC]\09 - Lost In The Rave (feat. Zoe Vanwest).wav
Peak level 97.1 % Extraction speed 8.1 X Track quality 99.9 % Test CRC 4EADDEA0 Copy CRC 4EADDEA0 Track not present in AccurateRip database Copy OK
Track 10
Filename C:\EAC\M-Project - Blood, Sweat & Makina (2013) [FLAC]\10 - Genesis (feat. Daniel Seven).wav
Peak level 91.6 % Extraction speed 9.5 X Track quality 100.0 % Test CRC B0DBD280 Copy CRC B0DBD280 Track not present in AccurateRip database Copy OK
Track 11
Filename C:\EAC\M-Project - Blood, Sweat & Makina (2013) [FLAC]\11 - Magnetic Dreams (feat. Xavi BCN).wav
Peak level 92.5 % Extraction speed 8.5 X Track quality 99.9 % Test CRC 69ED6218 Copy CRC 69ED6218 Track not present in AccurateRip database Copy OK
None of the tracks are present in the AccurateRip database
No errors occurred
End of status report
---- CUETools DB Plugin V2.1.3
[CTDB TOCID: Un3wJA2cM26Lo8JafavHVOL3drY-] found, Submit result: Un3wJA2cM26Lo8JafavHVOL3drY- has been confirmed[28c28f30] (1/1) Accurately ripped
==== Log checksum 4097B8121762B514EF803D8CC7317D6C017DF425CB6DE2958B9FD86B302991B9 ====

Содержание индексной карты (.CUE)

REM GENRE MakinaREM DATE 2013REM DISCID 910FA10BREM COMMENT "ExactAudioCopy v1.0b3"PERFORMER "M-Project"TITLE "Blood, Sweat & Makina"FILE "01 - Blood, Sweat & Makina.wav" WAVE TRACK 01 AUDIO TITLE "Blood, Sweat & Makina" PERFORMER "M-Project" INDEX 01 00:00:00FILE "02 - Fountain Of Remembrance.wav" WAVE TRACK 02 AUDIO TITLE "Fountain Of Remembrance" PERFORMER "M-Project" INDEX 01 00:00:00FILE "03 - The Turbulence of Awakening (feat. 3R2).wav" WAVE TRACK 03 AUDIO TITLE "The Turbulence of Awakening (feat. 3R2)" PERFORMER "M-Project" INDEX 01 00:00:00FILE "04 - Rhythm Of Love (feat. Yuki).wav" WAVE TRACK 04 AUDIO TITLE "Rhythm Of Love (feat. Yuki)" PERFORMER "M-Project" INDEX 01 00:00:00FILE "05 - Cosmic Forge (feat. PJ Makina).wav" WAVE TRACK 05 AUDIO TITLE "Cosmic Forge (feat. PJ Makina)" PERFORMER "M-Project" INDEX 01 00:00:00FILE "06 - Crimson Viper (feat. DJ DEPATH).wav" WAVE TRACK 06 AUDIO TITLE "Crimson Viper (feat. DJ DEPATH)" PERFORMER "M-Project" INDEX 01 00:00:00FILE "07 - Synthetic Sky.wav" WAVE TRACK 07 AUDIO TITLE "Synthetic Sky" PERFORMER "M-Project" INDEX 01 00:00:00FILE "08 - Mind Activation (feat. SPeeDX).wav" WAVE TRACK 08 AUDIO TITLE "Mind Activation (feat. SPeeDX)" PERFORMER "M-Project" INDEX 01 00:00:00FILE "09 - Lost In The Rave (feat. Zoe Vanwest).wav" WAVE TRACK 09 AUDIO TITLE "Lost In The Rave (feat. Zoe Vanwest)" PERFORMER "M-Project" INDEX 01 00:00:00FILE "10 - Genesis (feat. Daniel Seven).wav" WAVE TRACK 10 AUDIO TITLE "Genesis (feat. Daniel Seven)" PERFORMER "M-Project" INDEX 01 00:00:00FILE "11 - Magnetic Dreams (feat. Xavi BCN).wav" WAVE TRACK 11 AUDIO TITLE "Magnetic Dreams (feat. Xavi BCN)" PERFORMER "M-Project" INDEX 01 00:00:00

_________________
Показать сообщения:    

Текущее время: Сегодня 21:04

Часовой пояс: GMT



Вы не можете начинать темы
Вы не можете отвечать на сообщения
Вы не можете редактировать свои сообщения
Вы не можете удалять свои сообщения
Вы не можете голосовать в опросах
Вы не можете прикреплять файлы к сообщениям
Вы не можете скачивать файлы