Важное объявление!
У Нас Все раздачи мультитрекерные, при нуле пиров в релизах, можете смело вставать на закачку!
Статистика раздачи
Размер:     |    Зарегистрирован:     |    Скачан:     |   
Нет
 
     
 
 
Автор Сообщение

HUNTER

Стаж:
5 лет
Сообщений:
67958

Репутация: 101

[+] [-]
Вне форума [Профиль] [ЛС]

M-Project&Daniel Seven / Polymerization
Жанр: Makina
Носитель: CD
Страна-производитель диска: Japan
Год издания: 2013
Издатель (лейбл): Terraform Music, Guhroovy
Номер по каталогу: TFCD005
Страна: Japan
Аудиокодек: FLAC (*.flac)
Тип рипа: image+.cue
Битрейт аудио: lossless
Продолжительность: 00:40:48
Источник (релизер): Nyaa
Наличие сканов в содержимом раздачи: нет
Треклист:
01. Rock Da House (M-Project & Daniel Seven Rework) [05:00]
02. Polymerization [04:37]
03. Sittin On Clouds [06:42]
04. Venus Wave [05:46]
05. Party People Bounce [06:52]
06. Sittin On Clouds (Olly P Remix) [06:32]
07. Rainbow Lights (Fracus & Darwin Remix) [05:17]

Лог создания рипа

Exact Audio Copy V1.0 beta 3 from 29. August 2011
EAC extraction logfile from 10. March 2014, 16:34
M-Project&Daniel Seven / Polymerization
Used drive : HL-DT-STDVDRAM GH24NSB0 Adapter: 3 ID: 0
Read mode : SecureUtilize accurate stream : YesDefeat audio cache : NoMake use of C2 pointers : No
Read offset correction : 6Overread into Lead-In and Lead-Out : NoFill up missing offset samples with silence : YesDelete leading and trailing silent blocks : NoNull samples used in CRC calculations : YesUsed interface : Native Win32 interface for Win NT & 2000Gap handling : Not detected, thus appended to previous track
Used output format : User Defined EncoderSelected bitrate : 896 kBit/sQuality : HighAdd ID3 tag : NoCommand line compressor : C:\Program Files (x86)\FLAC Frontend\tools\flac.exeAdditional command line options : -V -T "ARTIST=%artist%" -T "TITLE=%title%" -T "ALBUM=%albumtitle%" -T "DATE=%year%" -T "TRACKNUMBER=%tracknr%" -T "GENRE=%genre%" -T "COMMENT=%comment%" %source% -o %dest%
TOC of the extracted CD
Track | Start | Length | Start sector | End sector --------------------------------------------------------- 1 | 0:00.00 | 5:00.04 | 0 | 22503 2 | 5:00.04 | 4:37.42 | 22504 | 43320 3 | 9:37.46 | 6:42.13 | 43321 | 73483 4 | 16:19.59 | 5:46.62 | 73484 | 99495 5 | 22:06.46 | 6:52.61 | 99496 | 130456 6 | 28:59.32 | 6:32.07 | 130457 | 159863 7 | 35:31.39 | 5:17.00 | 159864 | 183638
Track 1
Filename D:\01 Rock Da House (M-Project & Daniel Seven Rework).wav
Peak level 97.6 % Extraction speed 1.8 X Track quality 100.0 % Test CRC D7B6D87C Copy CRC D7B6D87C Track not present in AccurateRip database Copy OK
Track 2
Filename D:\02 Polymerization.wav
Peak level 100.0 % Extraction speed 2.1 X Track quality 99.9 % Test CRC 896C4759 Copy CRC 896C4759 Track not present in AccurateRip database Copy OK
Track 3
Filename D:\03 Sittin On Clouds.wav
Peak level 90.4 % Extraction speed 2.4 X Track quality 100.0 % Test CRC 0876C7AE Copy CRC 0876C7AE Track not present in AccurateRip database Copy OK
Track 4
Filename D:\04 Venus Wave.wav
Peak level 71.4 % Extraction speed 2.6 X Track quality 100.0 % Test CRC 39BF7964 Copy CRC 39BF7964 Track not present in AccurateRip database Copy OK
Track 5
Filename D:\05 Party People Bounce.wav
Peak level 100.0 % Extraction speed 2.9 X Track quality 100.0 % Test CRC 85877940 Copy CRC 85877940 Track not present in AccurateRip database Copy OK
Track 6
Filename D:\06 Sittin On Clouds (Olly P Remix).wav
Peak level 83.5 % Extraction speed 3.0 X Track quality 99.9 % Test CRC B021E146 Copy CRC B021E146 Track not present in AccurateRip database Copy OK
Track 7
Filename D:\07 Rainbow Lights (Fracus & Darwin Remix).wav
Peak level 91.5 % Extraction speed 3.2 X Track quality 100.0 % Test CRC 8BF900FD Copy CRC 8BF900FD Track not present in AccurateRip database Copy OK
None of the tracks are present in the AccurateRip database
No errors occurred
End of status report
---- CUETools DB Plugin V2.1.4
[CTDB TOCID: UEU9VM4PyN5MiCqPqifoWkTQLtw-] foundSubmit result: already submittedTrack | CTDB Status 1 | (7/7) Accurately ripped 2 | (7/7) Accurately ripped 3 | (7/7) Accurately ripped 4 | (7/7) Accurately ripped 5 | (7/7) Accurately ripped 6 | (7/7) Accurately ripped 7 | (7/7) Accurately ripped
==== Log checksum E4A5093DA8493115F327393671DCCC85E9AA3CC6278AF6F0D4F5C043D8667BAA ====

Содержание индексной карты (.CUE)

REM GENRE MakinaREM DATE 2013REM DISCID 52099007REM COMMENT "ExactAudioCopy v1.0b3"PERFORMER "M-Project&Daniel Seven"TITLE "Polymerization"FILE "01 Rock Da House (M-Project & Daniel Seven Rework).flac" WAVE TRACK 01 AUDIO TITLE "Rock Da House (M-Project & Daniel Seven Rework)" PERFORMER "M-Project&Daniel Seven" INDEX 01 00:00:00FILE "02 Polymerization.flac" WAVE TRACK 02 AUDIO TITLE "Polymerization" PERFORMER "M-Project&Daniel Seven" INDEX 01 00:00:00FILE "03 Sittin On Clouds.flac" WAVE TRACK 03 AUDIO TITLE "Sittin On Clouds" PERFORMER "M-Project&Daniel Seven" INDEX 01 00:00:00FILE "04 Venus Wave.flac" WAVE TRACK 04 AUDIO TITLE "Venus Wave" PERFORMER "M-Project&Daniel Seven" INDEX 01 00:00:00FILE "05 Party People Bounce.flac" WAVE TRACK 05 AUDIO TITLE "Party People Bounce" PERFORMER "M-Project&Daniel Seven" INDEX 01 00:00:00FILE "06 Sittin On Clouds (Olly P Remix).flac" WAVE TRACK 06 AUDIO TITLE "Sittin On Clouds (Olly P Remix)" PERFORMER "M-Project&Daniel Seven" INDEX 01 00:00:00FILE "07 Rainbow Lights (Fracus & Darwin Remix).flac" WAVE TRACK 07 AUDIO TITLE "Rainbow Lights (Fracus & Darwin Remix)" PERFORMER "M-Project&Daniel Seven" INDEX 01 00:00:00

_________________
Показать сообщения:    

Текущее время: Сегодня 22:52

Часовой пояс: GMT



Вы не можете начинать темы
Вы не можете отвечать на сообщения
Вы не можете редактировать свои сообщения
Вы не можете удалять свои сообщения
Вы не можете голосовать в опросах
Вы не можете прикреплять файлы к сообщениям
Вы не можете скачивать файлы