Ивановский Торрент трекер
Яндекс.Погода
 

[Quote]
HUNTER

Любовь, измена и воровство / Любовь, обман и воровство / Love, Cheat & Steal
Страна: США
Жанр: триллер
Год выпуска: 1993
Продолжительность: 01:32:10
Перевод: Профессиональный (двухголосый закадровый) НТВ+
Субтитры: нет
Оригинальная аудиодорожка: английский
Режиссер: Уильям Карран / William Curran
В ролях: Джон Литгоу, Эрик Робертс, Медкен Эмик, Ричард Эдсон, Дональд Моффет, Дэвид Экройд...
Описание: Пол Хэррингтон считает, что его жена идеальна. Но он не знает, что за симпатичным личиком Лорен скрывается жестокая и бескомпромиссная стерва, семь лет назад подставившая и засадившая за решётку своего бывшего бойфренда Рено. Но очень скоро Пол узнает об этом, потому что Рено вышел из тюрьмы и сильно горит желанием отомстить.

Сэмпл: http://sendfile.su/1398239
Тип релиза: HDTV 1080i
Контейнер: TS
Видео: AVC, 1920х1080, 7033 Kbps, 25.000 fps
Аудио: русский, MP2, 2 ch, 192 Kbps, 48.0 KHz
Аудио 2: английский, MP2, 2 ch, 192 Kbps, 48.0 KHz
Rip by

MediaInfo

General
ID : 1 (0x1)
Complete name : W:\Рипер 1\Любовь, измена и воровство 1080i (1993).ts
Format : MPEG-TS
File size : 5.03 GiB
Duration : 1h 32mn
Overall bit rate mode : Variable
Overall bit rate : 7 807 Kbps
Video
ID : 1210 (0x4BA)
Menu ID : 142 (0x8E)
Format : AVC
Format/Info : Advanced Video Codec
Format profile : [email protected]
Format settings, CABAC : Yes
Format settings, ReFrames : 4 frames
Format settings, GOP : M=4, N=28
Codec ID : 27
Duration : 1h 32mn
Bit rate : 7 033 Kbps
Width : 1 920 pixels
Height : 1 080 pixels
Display aspect ratio : 16:9
Frame rate : 25.000 fps
Standard : Component
Color space : YUV
Chroma subsampling : 4:2:0
Bit depth : 8 bits
Scan type : Interlaced
Scan order : Top Field First
Bits/(Pixel*Frame) : 0.136
Stream size : 4.53 GiB (90%)
Color primaries : BT.709
Transfer characteristics : BT.709
Matrix coefficients : BT.709
Audio #1
ID : 1211 (0x4BB)
Menu ID : 142 (0x8E)
Format : MPEG Audio
Format version : Version 1
Format profile : Layer 2
Codec ID : 3
Duration : 1h 32mn
Bit rate mode : Constant
Bit rate : 192 Kbps
Channel(s) : 2 channels
Sampling rate : 48.0 KHz
Compression mode : Lossy
Stream size : 127 MiB (2%)
Language : Russian
Audio #2
ID : 1212 (0x4BC)
Menu ID : 142 (0x8E)
Format : MPEG Audio
Format version : Version 1
Format profile : Layer 2
Codec ID : 3
Duration : 1h 32mn
Bit rate mode : Constant
Bit rate : 192 Kbps
Channel(s) : 2 channels
Sampling rate : 48.0 KHz
Compression mode : Lossy
Stream size : 127 MiB (2%)
Language : English

Скриншоты



Display posts:    

Current time is: 09-Jul 11:21

All times are UTC ± 0


You cannot post new topics in this forum
You cannot reply to topics in this forum
You cannot edit your posts in this forum
You cannot delete your posts in this forum
You cannot vote in polls in this forum
You cannot attach files in this forum
You cannot download files in this forum

!ATTENTION!
The site does not give electronic versions of products, and is engaged only in a collecting and cataloguing of the references sent and published at a forum by our readers. If you are the legal owner of any submitted material and do not wish that the reference to it was in our catalogue, contact us and we shall immediately remove her. Files for an exchange on tracker are given by users of a site, and the administration does not bear the responsibility for their maintenance. The request to not fill in the files protected by copyrights, and also files of the illegal maintenance!