[Lynda.com] SketchBook Pro 7 Essential Training [2014, RUS] :: Ивановский Торрент трекер
Важное объявление!
У Нас Все раздачи мультитрекерные, при нуле пиров в релизах, можете смело вставать на закачку!
Статистика раздачи
Размер:     |    Зарегистрирован:     |    Скачан:     |   
Нет
 
     
 
 
Автор Сообщение

HUNTER

Стаж:
4 года 11 месяцев
Сообщений:
66112

Репутация: 101

[+] [-]
Вне форума [Профиль] [ЛС]

[Lynda.com] SketchBook Pro 7 Essential Training [2014, RUS]
Год выпуска: 2014
Сайт производителя: Lynda.com
Автор: Veejay Gahir
Продолжительность: 2:36:26
Тип раздаваемого материала: Видеоурок
Язык: Русский (перевод AlexJP)
Субтитры: Английские (внутри zip-архива)
Описание:
Курс основ SketchBook Pro 7.
Создать цифровой рисунок в SketchBook Pro просто, независимо от того, являетесь ли вы иллюстратором или дизайнером CAD, работающим на производстве.
В этом курсе Veejay Gahir представляет учебные изображения и демонстрирует методы, которые он разработал за годы работы профессиональным промышленным и автомобильным дизайнером.
Он проведет вас через основы SketchBook Pro – интерфейс, настройки, кисти, инструменты Lagoon и опции экспорта.
Таким образом, вы сможете быстро начать занятия скетчингом. Автор курса также познакомит вас с альтернативными рабочими процессами, которые могут дать лучшие результаты для вашего стиля работы. Ваши финальные скетчи могут быть переданы в CAD программы или просто сохранены в имиджах.
Некоторые темы курса:
- Интерфейс программы, инструменты Lagoon
- Работа с цветом
- Изменение свойств кисти
- Кадрирование, преобразования и искажения
- Работа с симметрией и перспективой
- Создание кривых и прямых линий
- Использование слоёв
- Экспорт изображений.
Файлы примеров: присутствуют
Формат видео: MP4
Видео: AVC (H264), 1280х720, 15 fps
Аудио: AAC, 44100 Hz, mono, 128 Кбит/с

Mediainfo

GeneralComplete name : 00_02. Using the Exercise Files.mp4Format : MPEG-4Format profile : Base MediaCodec ID : isomFile size : 1.03 MiBDuration : 36s 523msOverall bit rate mode : VariableOverall bit rate : 238 KbpsWriting application : Lavf55.19.104
VideoID : 1Format : AVCFormat/Info : Advanced Video CodecFormat profile : Main@L3.1Format settings, CABAC : YesFormat settings, ReFrames : 5 framesCodec ID : avc1Codec ID/Info : Advanced Video CodingDuration : 36s 467msBit rate mode : VariableBit rate : 106 KbpsMaximum bit rate : 1 000 KbpsWidth : 1 280 pixelsHeight : 720 pixelsDisplay aspect ratio : 16:9Frame rate mode : ConstantFrame rate : 15.000 fpsColor space : YUVChroma subsampling : 4:2:0Bit depth : 8 bitsScan type : ProgressiveBits/(Pixel*Frame) : 0.008Stream size : 470 KiB (44%)Writing library : x264 core 129Language : English
AudioID : 2Format : AACFormat/Info : Advanced Audio CodecFormat profile : LCCodec ID : 40Duration : 36s 523msDuration_LastFrame : 44msBit rate mode : ConstantBit rate : 128 KbpsChannel(s) : 2 channelsChannel(s)_Original : 1 channelChannel positions : Front: CSampling rate : 44.1 KHzCompression mode : LossyStream size : 570 KiB (54%)Language : Russian

Скриншоты


Время раздачи: до первых 5 скачавших

_________________
Показать сообщения:    

Текущее время: Сегодня 17:43

Часовой пояс: GMT



Вы не можете начинать темы
Вы не можете отвечать на сообщения
Вы не можете редактировать свои сообщения
Вы не можете удалять свои сообщения
Вы не можете голосовать в опросах
Вы не можете прикреплять файлы к сообщениям
Вы не можете скачивать файлы