Важное объявление!
У Нас Все раздачи мультитрекерные, при нуле пиров в релизах, можете смело вставать на закачку!
 
Автор Сообщение

HUNTER

Стаж:
4 года 4 месяца
Сообщений:
56842

Репутация: 101

[+] [-]
Вне форума [Профиль] [ЛС]

[Lynda.com] Mudbox 2013 Essential Training. Основной тренинг [2012, RUS]
Год выпуска: 2012
Сайт производителя: Lynda.com
Автор: Ryan Kittleson
Продолжительность: 4:15:04
Тип раздаваемого материала: Видеоурок
Язык: Русский (перевод Alex_Cg)
Субтитры: Английские (в zip-архиве)
Описание:
Этот курс познакомит вас с программой Mudbox, которая предназначена для моделирования высоко-полигональной (high poly) цифровой скульптуры и текстурного окрашивания 3D моделей.
Mudbox предоставляет специалистам по моделированию и художникам по текстурам все возможности для создания цифровых 3D объектов, как если бы они работали с глиной и красками.
Mudbox обладает удобным интуитивным интерфейсом, что позволяет всего за несколько дней освоить базовые принципы работы.
Автор данного курса фокусируется на таких вопросах, как моделирование, скульптинг и текстурирование, создание карт нормалей, экспорт 3D объектов в Maya или 3d Max для последующей работы, рендеринга и анимации. В последней главе рассматриваются настройки освещения и рендера.

Дополнительная информация

Курс построен таким образом, что можно легко обойтись без файлов примеров.
Но если они вдруг понадобятся, то загляните в раздачу на английском языке и скачайте архив Ex_Files_Mudbox_2013_EssT.zip (размер 1 613 492 766 байт).
Файлы примеров: отсутствуют
Формат видео: MP4
Видео: AVC (H264), 1280х720, 15 fps
Аудио: AAC, 48000 Hz, 125 Кбит/с

Mediainfo

GeneralComplete name : 1_01. Optimizing a Wacom tablet for Mudbox.mp4Format : MPEG-4Format profile : Base MediaCodec ID : isomFile size : 3.77 MiBDuration : 1mn 54sOverall bit rate : 277 KbpsWriting application : Lavf55.19.104
VideoID : 1Format : AVCFormat/Info : Advanced Video CodecFormat profile : Main@L3.1Format settings, CABAC : YesFormat settings, ReFrames : 5 framesCodec ID : avc1Codec ID/Info : Advanced Video CodingDuration : 1mn 54sBit rate : 147 KbpsWidth : 1 280 pixelsHeight : 720 pixelsDisplay aspect ratio : 16:9Frame rate mode : ConstantFrame rate : 15.000 fpsColor space : YUVChroma subsampling : 4:2:0Bit depth : 8 bitsScan type : ProgressiveBits/(Pixel*Frame) : 0.011Stream size : 2.01 MiB (53%)Language : English
AudioID : 2Format : AACFormat/Info : Advanced Audio CodecFormat profile : LCCodec ID : 40Duration : 1mn 54sBit rate mode : ConstantBit rate : 125 KbpsChannel(s) : 2 channelsChannel positions : Front: L RSampling rate : 48.0 KHzCompression mode : LossyStream size : 1.71 MiB (45%)Language : Russian

Скриншоты

Время раздачи: до первых 5 скачавших

_________________
Показать сообщения:    

Текущее время: Сегодня 09:39

Часовой пояс: GMT



Вы не можете начинать темы
Вы не можете отвечать на сообщения
Вы не можете редактировать свои сообщения
Вы не можете удалять свои сообщения
Вы не можете голосовать в опросах
Вы не можете прикреплять файлы к сообщениям
Вы не можете скачивать файлы