Важное объявление!
У Нас Все раздачи мультитрекерные, при нуле пиров в релизах, можете смело вставать на закачку!
Статистика раздачи
Размер:     |    Зарегистрирован:     |    Скачан:     |   
Нет
 
     
 
 
Автор Сообщение

HUNTER

Стаж:
5 лет
Сообщений:
67958

Репутация: 101

[+] [-]
Вне форума [Профиль] [ЛС]

[Lynda.com] MODO 701 Essential Training. Основной тренинг [2013, RUS]
Год выпуска: 2013
Сайт производителя: Lynda.com
Автор: Ellery Connell
Продолжительность: 5:23:09
Тип раздаваемого материала: Видеоурок
Язык: Русский (перевод HunterWolf)
Субтитры: Русские, Английские (в zip-архиве)
Описание:
Когда компании "The Foundry" и "Luxology" объединили усилия, было рождено высококлассное и мощное решение для 3D моделирования, анимации и рендера. Создатели серьезных 3D проектов уже несколько лет успешно используют Modo, однако среди рядовых визуализаторов и аниматоров этот продукт пока не сильно распространен.
В этом курсе вы можете узнать много интересных способов вдохнуть жизнь в ваш 3D проект с помощью Modo.
Вы научитесь использовать инструменты полигонального и SubD моделирования, инструменты скульпта и ретопологии, научитесь создавать реалистичные материалы для 3D объектов. Затем, автор курса расскажет о модулях освещения и анимации в Modo.
Также будут рассмотрены вопросы динамики частиц, настройки рендеринга и другие базовые знания и навыки, чтобы начать моделировать все, начиная от визуализации продукта и заканчивая созданием игровых персонажей в Modo 701.

Содержание

Некоторые темы курса:
- навигация в 3D пространстве Modo
- работа с примитивами
- полигональное моделирование
- работа с топологией
- скульпт
- работа с шейдерами и рисование текстур
- применение глобального освещения (GI)
- анимирование с использованием связей и костей
- добавление динамических объектов
- симуляция поведения частиц
- изменение настроек рендера.
Файлы примеров: присутствуют
Формат видео: MP4
Видео: AVC (H264), 1280х720, 15 fps
Аудио: AAC, 48000 Hz, 125 Кбит/с

Mediainfo

GeneralComplete name : 0_02. Файлы упражнений.mp4Format : MPEG-4Format profile : Base MediaCodec ID : isomFile size : 738 KiBDuration : 33s 387msOverall bit rate : 181 KbpsWriting application : Lavf55.19.104
VideoID : 1Format : AVCFormat/Info : Advanced Video CodecFormat profile : Main@L3.1Format settings, CABAC : YesFormat settings, ReFrames : 3 framesCodec ID : avc1Codec ID/Info : Advanced Video CodingDuration : 33s 200msBit rate : 51.4 KbpsWidth : 1 280 pixelsHeight : 720 pixelsDisplay aspect ratio : 16:9Frame rate mode : ConstantFrame rate : 15.000 fpsColor space : YUVChroma subsampling : 4:2:0Bit depth : 8 bitsScan type : ProgressiveBits/(Pixel*Frame) : 0.004Stream size : 208 KiB (28%)Language : English
AudioID : 2Format : AACFormat/Info : Advanced Audio CodecFormat profile : LCCodec ID : 40Duration : 33s 387msBit rate mode : ConstantBit rate : 125 KbpsChannel(s) : 2 channelsChannel positions : Front: L RSampling rate : 48.0 KHzCompression mode : LossyStream size : 511 KiB (69%)Language : Russian

Скриншоты


Время раздачи: до первых 5 скачавших

_________________
Показать сообщения:    

Текущее время: Сегодня 04:48

Часовой пояс: GMT



Вы не можете начинать темы
Вы не можете отвечать на сообщения
Вы не можете редактировать свои сообщения
Вы не можете удалять свои сообщения
Вы не можете голосовать в опросах
Вы не можете прикреплять файлы к сообщениям
Вы не можете скачивать файлы