Ивановский Торрент трекер
Яндекс.Погода
Статистика раздачи
Размер:  1.08 GB   |    Зарегистрирован:  2 года 4 месяца   |    Скачан:  0 раз

Полного источника не было: Никогда

 
     
 
 
 

[Цитировать]
HUNTER

[Lynda.com] MODO 701 Essential Training. Основной тренинг [2013, RUS]
Год выпуска: 2013
Сайт производителя: Lynda.com
Автор: Ellery Connell
Продолжительность: 5:23:09
Тип раздаваемого материала: Видеоурок
Язык: Русский (перевод HunterWolf)
Субтитры: Русские, Английские (в zip-архиве)
Описание:
Когда компании "The Foundry" и "Luxology" объединили усилия, было рождено высококлассное и мощное решение для 3D моделирования, анимации и рендера. Создатели серьезных 3D проектов уже несколько лет успешно используют Modo, однако среди рядовых визуализаторов и аниматоров этот продукт пока не сильно распространен.
В этом курсе вы можете узнать много интересных способов вдохнуть жизнь в ваш 3D проект с помощью Modo.
Вы научитесь использовать инструменты полигонального и SubD моделирования, инструменты скульпта и ретопологии, научитесь создавать реалистичные материалы для 3D объектов. Затем, автор курса расскажет о модулях освещения и анимации в Modo.
Также будут рассмотрены вопросы динамики частиц, настройки рендеринга и другие базовые знания и навыки, чтобы начать моделировать все, начиная от визуализации продукта и заканчивая созданием игровых персонажей в Modo 701.

Содержание

Некоторые темы курса:
- навигация в 3D пространстве Modo
- работа с примитивами
- полигональное моделирование
- работа с топологией
- скульпт
- работа с шейдерами и рисование текстур
- применение глобального освещения (GI)
- анимирование с использованием связей и костей
- добавление динамических объектов
- симуляция поведения частиц
- изменение настроек рендера.
Файлы примеров: присутствуют
Формат видео: MP4
Видео: AVC (H264), 1280х720, 15 fps
Аудио: AAC, 48000 Hz, 125 Кбит/с

Mediainfo

GeneralComplete name : 0_02. Файлы упражнений.mp4Format : MPEG-4Format profile : Base MediaCodec ID : isomFile size : 738 KiBDuration : 33s 387msOverall bit rate : 181 KbpsWriting application : Lavf55.19.104
VideoID : 1Format : AVCFormat/Info : Advanced Video CodecFormat profile : Main@L3.1Format settings, CABAC : YesFormat settings, ReFrames : 3 framesCodec ID : avc1Codec ID/Info : Advanced Video CodingDuration : 33s 200msBit rate : 51.4 KbpsWidth : 1 280 pixelsHeight : 720 pixelsDisplay aspect ratio : 16:9Frame rate mode : ConstantFrame rate : 15.000 fpsColor space : YUVChroma subsampling : 4:2:0Bit depth : 8 bitsScan type : ProgressiveBits/(Pixel*Frame) : 0.004Stream size : 208 KiB (28%)Language : English
AudioID : 2Format : AACFormat/Info : Advanced Audio CodecFormat profile : LCCodec ID : 40Duration : 33s 387msBit rate mode : ConstantBit rate : 125 KbpsChannel(s) : 2 channelsChannel positions : Front: L RSampling rate : 48.0 KHzCompression mode : LossyStream size : 511 KiB (69%)Language : Russian

Скриншоты


Время раздачи: до первых 5 скачавших
[iv-torrents.ru].t47323.torrent
Торрент: Зарегистрирован [ 2015-07-19 16:28 ] · 6CDF6A4FE71489C4EA0C3FBFFED35D07B175A157

Скачать .torrent

Скачать

31 KB

Статус: проверено
Скачан: 0 раз
Размер: 1.08 GB
terms.php


Показать сообщения:    

Текущее время: 15-Дек 10:17

Часовой пояс: UTC ± 0


Вы не можете начинать темы
Вы не можете отвечать на сообщения
Вы не можете редактировать свои сообщения
Вы не можете удалять свои сообщения
Вы не можете голосовать в опросах
Вы не можете прикреплять файлы к сообщениям
Вы можете скачивать файлы

!ВНИМАНИЕ!
Сайт не предоставляет электронные версии произведений, а занимается лишь коллекционированием и каталогизацией ссылок, присылаемых и публикуемых на форуме нашими читателями. Если вы являетесь правообладателем какого-либо представленного материала и не желаете, чтобы ссылка на него находилась в нашем каталоге, свяжитесь с нами, и мы незамедлительно удалим ее. Файлы для обмена на трекере предоставлены пользователями сайта, и администрация не несет ответственности за их содержание. Просьба не заливать файлы, защищенные авторскими правами, а также файлы нелегального содержания!